アットウィキロゴ

Bad Apple!! feat.nomico

アーティスト Masayoshi Minoshima

BPM EASY BASIC ADVANCED EXPERT MASTER Re:MASTER
138 2 3 7 10+ 12 13

EXPERT MASTER Re:MASTER
譜面制作者 譜面-100号 mai-Star Jack vs 某S氏

EASY


BASIC

(138.0){1}4,
{1}4,
{1}5,
{1}5,
{2}4,4,
{2}3,3,
{2}2,2,
{2}1,1b/8b,
{2}7,7,
{4}7,,7,7,
{2}6,6,
{4}6,,6,6,
{2}5,5,
{4}5,,5,5,
{2}4,4,
{4}4,,4,4,
{2}3,3,
{4}3,,3,3,
{2}2,2,
{4}1,8,1,,
{2}8,8,
{4}8,,8,8,
{2}7,7,
{2}7b,7b,
{1}8h[2:1],
{2}1,8,
{1}1h[2:1],
{2}2,3,
{1}4h[2:1],
{2}5,4,
{1}5h[2:1],
{4}6,6,7,7b,
{4}8,,,7,
{4}7,,,6,
{4}6,,,5,
{4}5,,,4,
{4}4,,,3,
{4}3,,,2,
{4}2,,,1,
{1}1,
{2}8,8,
{2}7,7,
{2}8,8,
{2}7/8,7/8,
{2}1,1,
{2}2,2,
{2}1,1,
{2}1/2,1/2,
{1}1-4[4:3],,
{1}8-5[4:3],,
{1}2-7[4:3],,
{1}6-3[4:3],,
{1}4,
{1}4,
{1}5,
{1}5,
{1}4h[2:1],
{1}4h[2:1],
{2}3,2,
{4}1b/8b,,1/2,1/8,
{2}7/8,1,
{4}8,,1,1,
{2}1,8,
{4}1,,8,8,
{2}8,7,
{4}6,,5,5,
{2}5,4,
{4}3,,2,2,
{1}1h[1:1],,
E

ADVANCED

(138.0){4}4,4,4,,
{4}6,6,6,,
{4}2,2,2,,
{4}8,8,8,,
{4}1,1,1,,
{4}7,7,7,,
{4}5,5,5,,
{4}3,3,1,1b,
{2}8,8,
{2}1,1,
{2}3,3,
{2}5,5,
{2}6,5,
{2}4,3,
{2}2,4,
{2}6,8b,
{4}6,5,4,3,
{4}2,1,8,7/8,
{4}1,2,3,4,
{4}5,6,7,8,
{4}1,1,7,7,
{4}3,3,5,5,
{4}4,6,8,2,
{4}1,1,8,8b,
{4}1,2,3,4,
{4}1/5,4/8,3/7,2/6,
{4}5,6,7,8,
{4}1,7,5,3,
{4}1,1,7,7,
{4}3/8,1/4,2/5,3/6,
{4}5,4,3,2,
{4}1/8,1/8,7/8,7b/8b,
{4}1h[4:1],2h[4:1],3,4,
{4}3h[4:1],2h[4:1],1,8,
{4}2,2,3,3,
{4}4,4,5,5,
{4}3,3,7,7,
{4}1,1,8,8,
{4}2,2,4,4,
{4}6,6,8,8,
{4}1/2,1/2,1/8,1/8,
{4}7/8,7/8,6/7,6/7,
{1}5-1[4:1],
{1}3-7[4:1],
{4}7/8,7/8,1/8,1/8,
{4}1/2,1/2,1/8,1/8,
{4}7,6,5,4,
{4}3,2,1b/8b,,
{1}2-6[2:1],,
{1}8-4[2:1],,
{2}2,2,
{2}8,8,
{2}6,6,
{2}4,4,
{4}5,6,7,,
{4}5,4,3,,
{4}4,5,6,,
{4}3,2,1,,
{2}8,8,
{2}2,2,
{2}4,4,
{4}6h[2:1],,8,1b/8b,
{4}7,6,5,4,
{4}3,2,1,1/8,
{4}2,3,4,5,
{4}6,7,8,1/8,
{4}7,6,5,4,
{4}3,2,1,1/8,
{4}2,3,4,5,
{4}7,5,3,1,
{1}1b/8b,
E

EXPERT

(138.0){16}4,,,,4,,,,4,,,,4,5,4,5,
{8}4,,4,,4,,4,4,
{16}4,,,,4,,,,4,,,,4,5,4,5,
{8}4,,4,,4,,4,5,
{16}4,,,,5,,,,4,,,,5,4,5,4,
{8}5,,4,,5,,4,4,
{16}4,,,,5,,,,4,,,,5,4,5,4,
{4}5,4,5,3b/4b,
{8}5,6,4,5,4,3,5,4,
{8}5,6,4,5,4,3,2,3,
{8}4,3,5,4,5,6,4,5,
{8}4,3,5,4,7h[4:1],,2h[4:1],,
{8}5,3,4,6,5,3,4,6,
{8}5,3,4,6,5,3,8,6,
{8}4,6,5,3,4,6,5,3,
{8}4,6,5,3,{12}4-7[8:1],4,4,,,,
{8}8,1,2,3,4h[4:1],,2,1,
{8}8h[4:1],,1h[4:1],,7,6,7,8,
{8}1,8,7,6,5h[4:1],,6,7,
{8}8,7,6,5,4,3,2,1,
{8}8,7,8,1,2h[4:1],,8,7,
{8}8h[4:1],,1h[4:1],,5,6,7,8,
{8}1,2,1,8,7h[4:1],,1,2,
{4}7,2,5/8,1/4,
{8}8,1,2,8,7h[4:1],,6,8,
{8}1h[4:1],,8h[4:1],,2,1,8,7,
{8}1,8,7,1,2h[4:1],,3,1,
{8}8,7,2,3,6,5,4,5,
{8}7,6,5,4,3h[4:1],,1,2,
{8}3h[4:1],,6h[4:1],,1,8,7,6,
{8}2,3,4,5,6h[4:1],,8,7,
{4}6b,4b,2b,8b,
{8}1,8,7,6,2h[4:1],,6,7,
{8}8,1,2,3,7h[4:1],,8,7,
{8}8,7,6,5,3h[4:1],,1,2,
{8}1,2,3,4,6h[4:1],,4,3,
{8}2,1,8,7,1h[4:1],,5,6,
{8}7,8,1,2,8h[4:1],,3,2,
{8}3,4,5,6,4h[4:1],,6,7,
{8}6,5,4,3,5h[4:1],,7,,
{4}3/4,7/8,4/5,1/2,
{4}6/7,3/4,1/8,5/6h[4:1],
{4}5,1/2,4/5,7/8,
{4}2/3,5/6,1/8,4/3h[4:1],
{4}1,6/8,3/5,2/8,
{4}5/7,2/4,1/7,4/6h[4:1],
{4}8,1/3,4/6,1/7,
{4}2/4,5/7,{12}3,3,3,6,6,6,
{2}2h[1:1],3h[4:1],
{2}6h[1:1],7h[4:1],
{2}4h[1:1],3h[4:1],
{2}5h[1:1],6h[4:1],
{2}3h[1:1],2h[4:1],
{2}7h[1:1],6h[4:1],
{2}1h[1:1],2h[4:1],
{2}8h[1:1],7h[4:1],
{4}2-5[4:1],1-6[4:1],,,
{4}7-2[4:1],4-1[4:1],,,
{4}8-3[4:1],1^6[4:1],,,
{4}2-5[4:1],4-7[4:1],,,
{4}5-8[4:1],1-4[4:1],,,
{4}2-6[4:1],5^2[4:1],,,
{4}8^3[4:1],4^7[4:1],,,
{4}8-4[4:1],,6b,2b,
{8}4,7,6,1,5,2,3,8,
{8}4,7,6,1,5,3,8,1,
{8}5,2,3,8,4,7,6,1,
{8}5,2,3,8,1h[4:1],,5h[4:1],,
{8}4,7,6,1,5,2,3,8,
{8}4,7,6,1,5,3,8,1,
{8}5,2,3,8,4,7,6,1,
{8}5,2,3,8,{12}6,1,7,3,8,2,
{4}5-8[2:1],,,,
E

MASTER

(138){16}
2,,,,1,,,,2,,,,7,8,7,8,
7,,,,8,,,,7,,,,1,,1,,
6,,,,5,,,,6,,,,3,4,3,4,
3,,,,4,,,,3,,,,8,,1,,
17,,,,8,,,,7,,,,6,5,6,5,
6,,,,5,,,,6,,,,12,,38,,
1,,,,7,,,,5,,,,3,4,3,4,
3,,,,4,,,,6,,,,8b,,,,

3,,4,3,,4,3,5,2,,1,2,,1,2,8,
5,,6,5,,6,5,7,8,,7,8,7,,8,7,
2,,1,2,,7,8,6,3,,4,3,,6,5,7,
8,,7,8,,5,4,6,2,,1,2,8,,1,8,
2,,5,4,,7,8,6,1,,6,5,,4,3,5,
2,,5,4,,7,8,6,1,,4,3,4,,2,1,
4,,6,5,,7,8,6,3,,4,3,,8,1,7,
4,,7,8,,5,4,5,{12}2b,1b,2b,7b,8b,7b,

{8}
3,4,25,36,47,,1h[8:1]/5h[8:1],,
2h[8:1]/6h[8:1],,3h[8:1]/7h[8:1],,4h[4:1]/8h[4:1],,,,
7,8,16,27,38,,1^4[4:1],,
4^7[4:1],,7^2[4:1],,2^5[4:1],,,,
3,2,1,8,7-2[4:1],,5,4,
3,,1,,3,4,5,6,
7,7,28,28,18,,48,15,
2h[4:1]/6h[4:1],,,,8-3[16:1]/4-7[16:1],,,,

37,26,15,48,15,,15,,
26,,2-5[16:1],,6-1[16:1],,,,
4h[8:1]/8h[8:1],,3h[8:1]/7h[8:1],,2h[8:1]/6h[8:1],,15,,
5,4,3,2,4,5,6,7,
37,26,15,48,15,26,37,48,
7-2[16:1],,,,3-6[16:1],,,,
6,6,7,7,2/8h[8:3],2,1,1,
7,,2,,8-5[16:1],,2b,,

15,26,3^8[8:1]/7^4[8:1],37,,,48,15,
26,37,48,26,15,,2,1,
8,78,16,25,34,,7,8,
1,12,38,47,5b/6b,,1h[4:1],2,
3h[4:1],4,5h[4:1],6,7h[4:1],,8h[4:1],7,
6h[4:1],5,4h[4:1],3,2h[4:1],,8h[8:1],5h[8:1],
7h[8:1],6h[8:1],1h[8:1],8h[8:1],1h[4:1],,4h[8:1],1h[8:1],
3h[8:1],2h[8:1],5h[8:1],4,{12}2b,1b,2b,8b,2b,7b,

{4}
2-7[4:1],7-3[4:1],3-6[4:1],6-1[4:1],
1-5[4:1],5-8[4:1],8-4[4:1],,
2^7[4:1],7^4[4:1],4^1[4:1],1-5[4:1],
5^8[4:1],8^3[4:1],3-6[8:1],,
8,67,23,13,56,34,67,{8}18,23,
34,34,12,12,78,78,56,56,
34,34,12,12,{12}7b,8b,7b,1b,7b,2b,

{4}
1h[2:1],,6h[4:1],3h[4:1],
2,1,8h[4:1],5h[4:1],
1h[2:1],,3h[4:1],7h[4:1],
6,4,{32}8,,,1b,,,,,{4},
5h[2:1],,8h[4:1],4h[4:1],
2,2,8h[4:1],7h[4:1],
6h[2:1],,4h[4:1],3h[4:1],
2,1,{32}8,,,1b,,,,,{4},
2h[2:1],,6h[4:1],3h[4:1],
2^7[8:1],4-1[8:1],,8h[4:1],
1h[2:1],,3h[4:1],7h[4:1],
6-1[8:1],8^3[8:1],,,
5h[2:1],,8h[4:1],4h[4:1],
2-5[8:1],1^6[8:1],,4h[4:1],
6h[2:1],,2h[4:1],1h[4:1],
2,1,2b/7b,1b/8b,

{16}
3,,4,3,,4,3,5,2,,1,2,,1,2,8,
5,,6,5,,6,5,7,8,,7,8,7,,8,7,
2,,1,2,,7,8,6,3,,4,3,,6,5,7,
8,,7,8,,5,4,6,2,,1,2,8,,1,8,
2,,5,4,,7,8,6,1,,6,5,,4,3,5,
2,,5,4,,7,8,6,1,,4,3,4,,2,1,
4,,6,5,,7,8,6,3,,4,3,,8,1,7,
4,,7,8,,5,4,5,{12}2b,3b,4b,5b,6b,7b,
{1}1b/8b,
,,
E

Re:MASTER

(138)
{4}2-6[8:1],8-4[8:1],1,{16}3,5,2,4,{4}1,25,47,{8}2,18,
{4}7-3[8:1],1-5[8:1],8,{16}6,4,7,5,{4}8,74,25,{8}6-3[8:1],6,
{4}2-7[8:1],8-4[8:1],1,{16}8,4,6,2,{4}8,23,76,{8}3-6[8:1],3,
{4}7-2[8:1],1-5[8:1],8,{16}1,5,3,7,{4}1p8[4:1],7,6-2[8:1],8b,

{16}
3h[8:1],,4,3,,2,1,2,6h[8:1],,5,6,,7,8,7,1h[8:1],,8,1,,2,5,4,7-3[8:1],,1-5[8:1],,,,,,
6h[8:1],,5,6,,7,8,7,3h[8:1],,4,3,,2,1,2,8h[8:1],,1,8,,7,4,5,2-6[8:1],,8-4[8:1],,,,,,
2h[8:1],,1,2,,3,4,3,7h[8:1],,8,7,,6,5,6,4h[8:1],,5,4,,2,6,4,8-4[8:1],,1-5[8:1],,,,,,
7h[8:1],,8,7,,6,5,6,2h[8:1],,1,2,,3,4,3,5h[8:1],,4,5,,7,4,5,{12}2b,3b,4b,5b,6b,7b,

{8}
81,12,23,43,4/5h[4:1],,6,7,8>4[8:1],,8<4[8:1],,1,2,3,4,
18,78,76,65,45,,32,76,5/4q5[4:1],,4/5<4[8:3],,,,,,
45,65,76,87,8/1h[4:1],,2,3,4<8[8:1],,4>8[8:1],,5,6,7,8,
54,43,32,21,81,,8-4[8:1],8,8/2-6[8:1],,28,,{12}7b,6b,5b,4b,3b,2b,
{8}18,71,16,51,8/4-8[8:1],,8-4[8:1],2,4-8[8:1],,8-4[8:1],,4-8[8:1],3,2,1,
18,82,38,48,1p5[8:1]/5p1[8:1],,15,,6p2[16:3],6,2p6[16:3],2,6p2[16:3],6,2p6[16:3],2,
4,3,2,1,8/4<8[4:1],,8>4[4:1],,4<8[4:1],,8q1[8:3],,6,5,4,3,
12,78,65,43,2h[4:1],,4-8[8:1],4,{4}4b/6-1[8:1],6b/3-8[8:1],3b/5-1[8:1],5b,

{8}
1q3[8:2],8,7,6,5,,4,5,6p4[8:2],7,8,1,2,,7,6,5q7[8:2],4,3,2,1,,8,1,2p8[8:2],3,4,5,6,,5,6,
7q1[8:2],8,1-6[8:1],2,3,,4,3,2p8[8:2],1,8-3[8:1],7,6,,1,2,3q5[8:2],4,5-2[8:1],6,7,,8,7,6p4[8:2],5,4-7[8:1],3,{4}2,1-6[8:1],
1/6-3[8:1],3-8[8:1]/6,38,8/7-4[8:1],7/4-1[8:1],4/1-6[8:1],16,6/3-8[8:1],3/8-5[8:1],8/5-2[8:1],52,2/8-3[8:1],8/3-6[8:1],3/6-1[8:1],16,8/1-6[8:1],
1/7-4[8:1],7/2-5[8:1],2/8-3[8:1],8/1-4[8:1],1/5-8[8:1],5/3-7[8:1],73,7/1-4[8:1],
1/7-2[8:1],7/3-6[8:1],3/5-8[8:1],5/2-6[8:1],2/8-4[8:1],48,{12}3b,2b,1b,8b,7b,6b,

{4}
5h[1:1],6-2[8:1],6,3,4h[1:1],3-7[8:1],3,6,8h[1:1],7-3[8:1],7,2,1h[1:1],2-6[8:1],2,7,
6h[1:1],5-8[8:1],5,1,3h[1:1],4-1[8:1],4,8,7h[1:1],6q3[8:1],6,4,2,1p4[8:1]/8q5[8:1],,{8}6,7,
8v5[8:1],8v3[8:1],8-4[8:1],,,,3,2,1v4[8:1],1v6[8:1],1-5[8:1],,,,6,7,
8v3[8:1],8p4[8:1],8^5[8:1],,,,3,2,1v6[8:1],1q5[8:1],1^4[8:1],,,,7,8,
12,38,4/7>4[4:1],65,,,2,1,78,16,5/2<5[4:1],34,,,6,7,48,73,26,15,{4}4<8[8:1]/8>4[8:1],8z4[8:3],,,5b/4b,1b/8b,

{16}
3h[8:1],,4,2,,2,1,2,6h[8:1],,5,7,,7,8,7,1h[8:1],,8,2,,2,1,2,7-3[8:1],,1-5[8:1],,7,,1,,
6h[8:1],,5,7,,7,8,7,3h[8:1],,4,2,,2,1,2,8h[8:1],,1,7,,7,8,7,2-6[8:1],,8-4[8:1],,2,,8,,
2h[8:1],,1,3,,6,5,6,3h[8:1],,4,2,,7,8,7,4h[8:1],,5,2,,2,1,2,7-3[8:1],,2-6[8:1],,7,,2,,
7h[8:1],,8,6,,3,4,3,6h[8:1],,5,7,,2,1,2,5h[8:1],,4,7,,7,8,7,{12}4b,6b,8b,2b,4b,6b,{1}
8b/1b,,,,,E

  • Re:MASTER追加しました。ページ上の書式など正しいか不安なので修正などありましたらお願いいたします -- Igniser. (2020-05-21 14:03:38)
名前:
コメント:

タグ:

+ タグ編集
  • タグ:
最終更新:2026年10月04日 08:17