BASIC
(190)
{1},,,,1,1,8,8,1,2,3,45,5,6,7,18,
{1}1-4[4:7],,,,8-5[4:7],,,,1-5[4:7],,,,8-4[4:7],,,,
{2}4x,4,4,,3,3,3,,2,2,2,,1,1,1x/8x,,8,8,8,,7,7,7,,6,6,6,,5,5,4b/5b,
45,45,45,45,{4}5,5,{2}5,6,6,{4}7,7,{2}7,8,8,{4}1,1,{2}1,18,1x/8x,
{4}2,2,{2}2,3,3,{4}4,4,{2}4,5,45,{4}6,6,{2}56,4,45,{4}3,3,{2}34,45,45,
{1}4b/5b,,,,E6,E5,E4,Cf,
{1}8h[2:1],8,7h[2:1],7x,6h[2:1],6,4h[2:1]/5h[2:1],45,
4h[2:1],4,3h[2:1],3,2h[2:1],2,1h[2:1]/8h[2:1],12,
{4}1,1,1,,2,2,2,,3,3,3,,4,4,4x/5x,,5,5,5,,6,6,6,,7,7,7,,1b/8b,,,,
8,8,7,7,6,6,56,,4,4,3,3,2,2,12,,
1,1,2,2,3,3,4,4,5,5,6,6,7,7,1x/8x,,
{1}2b/7b,,,,,,
E
ADVANCED
(190)
{1}3hx[1:1],4h[1:1],5h[1:1],{2}6,56,
{1}7p3[2:1],2q6[2:1],7pp4[4:5],,
{2}3h[2:1],4,6h[2:1],5,3h[2:1],4,5h[4:1]/6h[4:1],56,
7h[2:1],8,2h[2:1],1,7h[2:1],8,{4}18,18,2x/7x,,
{1}B5/E6,B6/E7,Ch[1:1],,B4/E4,B3/E3,Chf[1:1],,
{2}1x,1,2,2,3,3,4,4,{4}45,45,36,36,27,27,18,18,{8}7,7,7,,2,2,2,,{1}1b-5[2:1]/8b-4[2:1],
{4}3h[2:1],,4,4,5,5,46,,6h[2:1],,5,5,4,4,35,,
2h[2:1],,1,1,8,8,17,,7h[2:1],,8,8,1x/8x,1x/8x,2b/7b,,
3h[4:1],4,4,,6h[4:1],5,5,,3,3,4,4,5,5,46,,
7h[4:1],8,8,,2h[4:1],1,1,,7,7,8,8,1,1,2b/8b,,
3,3,4,4,3,34,25,,6,6,5,5,6,56,47,,
7,7,8,8,7,78,16,,2,2,1,1,2,18,2x/7x,,
3,34,5,45,3,34,25,,6,56,4,45,6,56,47,,
7,78,1,18,7,78,16,,2,12,8,18,2,18,2b/7b,,
{1}3V15[4:5]/6V84[4:5],,3V14[4:5]/6V85[4:5],,
{4}45,45,36,36,27,27,18,18,{8}8,8,8,,1,1,1,,{1}B3/B6/Cf,
{4}7x,68,5,5,45,34,25,,2,13,4,4,4x-8[2:1]/5x-1[2:1],,,,
2,13,4,4,45,56,4x/7x,,7,68,5,5,4x/5x,4x/5x,3x/6x,,
34,25,{8}1,1,{4}1,78,16,25,,56,47,{8}8,8,8,,{1}1x-4[2:1]/8x-5[2:1],
{4}6,57,{8}8,8,{4}8,12,38,47,,34,25,{8}1,1,1,,{1}2b/7b,
3,3,4,4,5,5,46,,7,7,8,8,18,18,2x/7x,,
2,2,1,1,8,8,17,,6,6,5,5,45,45,3b/6b,,
7x/8x,7x/8x,78,,12,12,12,,34,34,{2}3-7[2:1]/4-8[2:1],,,
{4}7x/8x,78,78,,56,56,56,,4,4,5,5,45,45,3x/6x,,
{1}Cf,,,,,,
E
EXPERT
(190)
{8}5,,4,4h[8:3],,,5,,4,,5,5h[8:3],,,4,,
5,,4,4h[8:3],,,5,,4,,5,5h[8:3],,,4,,
6h[8:3],,5,5h[8:3],,,6,,3h[8:3],,4,4h[8:3],,,3,,
6h[8:3],,5,5h[8:3],,,7^4[2:1],,{1},
{4}3,{2}3h[2:1]/4,2h[2:1],1h[2:1],{4}3,
{8}24,,3,3,,3q5[4:3]/4,,,{1},
{4}6,{2}5/6h[2:1],7h[2:1],8h[2:1],{4}6,
{8}57,,6,6,,5/6h[8:7],,,{1}4h[2:1],
4b-1[4:5],5-8[4:5],4-1[4:5],8-5[4:5],
1b-4[4:5],8-5[4:5],1-4[4:5],5^8[4:5],
4b^1[4:5],8^5[4:5],4^1[4:5],{4}5,5,6,6,
{8}56,6,6,,45,5,5,,34,3,3,,45,4,4,,
6,6,4,4,5,5,3,3,{4}8h[4:3],,,1b,
{8}2,2,4,4,2,2,5,5,4,4,6,6,5,5,7,7,
5,5,7,7,4,4,5,5,2,2,4,4,3,3,5,5,
4,4,6,3,7,7,5,6,4,4,5,3,6,6,2,4,
3,5,4,4,6,6,4,7,5b,,5x/6x,,{6}3x/4x,2x/5x,2x/5x,
{8}6,6,4,7,7,5,5,6,4,4,5,3,4,4,2,5,
1,1,4,2,2,5,4,6,6,4,7,7,4,8,58,,
3,3,5,1,1,4,2,2,8,8,4,6,6,5,7,7,
2,2,4,4,5,5,{4}6p4[8:5],4b,,,,
3x/6x,{8}3,3,{16}5,4,,4,5,,5,,
{8}36,,2,2,{16}8,1,,1,8,,27,,
{8}3b/6b,,4,4,{16}6,5,,5,6,,6,,
{8}47,,5,5,{16}3,4,,4,3,,25,,
6x,,6,5,,5,{8}7,78,78,16,,
{16}3,,3,4,,4,{8}2,12,12,38,,
45,{16}3,4,3,,6,5,6,,3,4,3,,34,,
{8}2x,2x,5x,5x,4x/6x,4x/6x,3b/7b,,
45,{16}6,5,6,,4,5,{8}4,7,7,3,
3,{16}2,1,2,,8,1,{8}8,3,3,5,
2x/5x,{16}3,4,3,,5,4,{8}5,2,2,6,
6,{16}7,8,7,,2,1,{8}2,12,3x/8x,,
{16}7,8,,8,{8}6,6,56,56,47,,
{16}2,1,,1,{8}3,3,34,34,25,,
45,{16}6,5,6,,3,4,3,,7,6,7,,2,1,
{8}2x,2x,1x/2x,1x/2x,3x/8x,3x/8x,4x>5[4:13]/7x,,
{0.25} Cf,
{4}B4,B2/E3,B5,B7/E7,B4,E2/E3,B5,E7/E8,
E5,C,E1,E2/E8,Ch[2:1]/E3/E7,,,1b/8b,
2x-5[8:1]/7x-4[8:1],,2x/7x,{8}12,38,47,
{16}6,5,6,,3,4,{8}2h[4:1],,1,38,
{4}4-8[8:1]/7-4[8:1],,1x/5x,37,{1}B2/B3/B6/B7/Ch[2:1],
{4}2x-5[8:1]/8x-4[8:1],,2x/6x,{8}78,16,25,
{16}3,4,3,,6,5,{8}7h[4:1],,8,16,
{4}2-5[8:1]/5-1[8:1],,4x/8x,26,
{12}7hx[4:1],,5,5h[4:1],,4,4h[4:1],,2,2b,,,
{4}4p8[8:1]/8p4[8:1],,2x/6x,{8}56,47,38,
{16}2,1,2,,7,8,{8}6h[4:1],,5,47,
{4}3-8[8:1]/8-4[8:1],,1x/5x,37,{1}B2/B6/Chf[2:1],
{8}1x/8x,2x/7x,{4}3x-5[8:1]/6x-2[8:1],,1b/7b,
{16}3,4,3,,7,6,7,,2,1,2,,3,,3,,
{2}2x-5[8:1]/4x-7[8:1],{8}8x,8x,1,1,
2x/7x,36,45,,{2}2b/7b,
{8}3x/5,2,3/5x,6,3x/5,2,3/5x,3x/5,
2/6x,,7-4[8:1],7,3-8[8:1],3,5b,,
4x/6,3,4/6x,7,4x/6,3,4x/6,4/6x,
{4}3x/7,2-5[8:1]/6-1[8:1],,4b/8b,
{8}1/7x,2,1x/7,6,1/7x,2,1x/7,1/7x,
2x/6,,3-8[8:1],3,7-4[8:1],7,1b,,
2/8x,3,2x/8,7,2/8x,3,2x/8,7,
{12}5b/6b,,2,24,,7,57,,1,1b/8b,,,
{8}2/4x,5,2x/4,1,2/4x,3,45,6,
5/7x,8,57,4,35,35,2b/6b,,
7x-4[8:1],7,3x-8[8:1],3,6,6,1x/7x,,
{2}4p8[8:1]/8p4[8:1],2b/6b,
{8}5x/7,4,5/7x,8,57,6,45,3,
2/4x,1,24,3,46,46,3b/7b,,
{12}15,,2,24,,7,57,,2,12,,,
{2}7/8w4[8:1],2hx[2:1]/6x,
{1}Cf,,,,,,,,
E
MASTER
(190)
{8}45,,4,3,,6,5,6,,3,3,4,3,,45,,
36,,5,6,,3,4,3,,6,6,5,6,,45,,
3>6[2:3]/6,,5,,4,4,,3,,4,,5,5,,4,,
3/6<3[4:5],,4,,5,5,,6,,5,,4,4,,36,,
45,,3h[4:7]/6,,5,5,,4,,2,,2,2,,4,,
5h[4:1],,6,6h[4:1],,7h[8:9],,,{4}E7,E5,E3,E1,
{8}45,,3/6h[4:7],,4,4,,5,,7,,7,7,,5,,
4h[4:1],,3,3h[4:1],,2z6[8:5],,,{1},
{2}4^6[4:3]/7,3,4^6[4:3],3,3<1[4:5],6,{4}E5,E6,E7,E8,
{2}2/5^3[4:3],6,5^3[4:3],6,6>8[4:5],3,{4}E5,E4,E3,E2,
{8}3h[2:1],,4,5,6h[2:1],,,,2h[2:1],,3,4,5h[2:1],,,,
3h[2:1],,4,5,{4}6h[2:1],,5,45,34,45,
{8}6,6,4,4,5,5,3,3,46,6,35,3,47,6,25,3,
{16}8,1,7,2,6,3,5,4,5,4,6,3,7,2,8,1,
{8}7x-3[8:1],7,1x-5[8:1],1,8xw4[8:1],8,8b,,
2b/7b,,1h[8:1],{16}B5,B4,1h[8:1],,B5,B4,1h[8:1],,B5,B4,
2h[8:1],,B5,B4,2h[8:1],,B5,B4,2h[8:1],,B5,B4,2h[8:1],,B5,B4,
3h[8:1],,B5,B4,3h[8:1],,B5,B4,3h[8:1],,B5,B4,3h[8:1],,B5,B4,
2h[8:1],,B5,B4,2h[8:1],,B5,B4,2h[8:1],,B5,B4,2,,,,
6h[8:1],,B4,B5,6h[8:1],,B4,B5,6h[8:1],,B4,B5,6h[8:1],,B4,B5,
7h[8:1],,B4,B5,7h[8:1],,B4,B5,7h[8:1],,B4,B5,7h[8:1],,B4,B5,
8h[8:1],,B4,B5,8h[8:1],,B4,B5,8h[8:1],,B4,B5,8,,,,
2x/7x,,,,{12}36,5,4,{6}3x/5x,4x/6x,4x/5x,
{16}2h[8:1],,B5,B4,2h[8:1],,B5,B4,3h[8:1],,B5,B4,3h[8:1],,B5,B4,
2h[8:1],,B5,B4,2h[8:1],,B5,B4,1h[8:1],,B5,B4,1h[8:1],,B5,B4,
8h[8:1],,B5,B4,8h[8:1],,B5,B4,7h[8:1],,B5,B4,7h[8:1],,B5,B4,
6h[8:1],,B5,B4,6h[8:1],,B5,B4,{2}7^2[8:1],
{16}8h[8:1],,B4,B5,7h[8:1],,B4,B5,6h[8:1],,B4,B5,6h[8:1],,B4,B5,
7h[8:1],,B4,B5,8h[8:1],,B4,B5,1h[8:1],,B4,B5,2h[8:1],,B4,B5,
3h[8:1],,B4,B5,3h[8:1],,B4,B5,2h[8:1],,B4,B5,1h[8:1],,B4,B5,
{4}8z4[4:1],,,1b/8b,
{16}45,,2,4,2,4,2,,6,5,,3,4,,35,,46,,7,5,7,5,7,,46,,3,4,2,,6,5,
7,,2,4,3,4,2,,7,5,6,5,7,,36,,2,4,3,5,4,6,5,7,1,8,1,,2b/7b,,,,
38,,7,5,6,5,7,,2,4,3,4,2,,35,,8,2,7,2,6,2,5,2,4,2,3,2,1,,,,
57,,2,1,3,,6,5,{8}7h[8:1],1h[8:1],3h[8:1],5h[8:1],6,6,{16}3,4,,6,5,,45,,2b/7b,,,,
1x/8x,,7,5,7,5,7,,3,4,,6,5,,46,,35,,2,4,2,4,2,,35,,6,5,7,,3,4,
2,,7,5,6,5,7,,2,4,3,4,2,,36,,7,5,6,4,5,3,4,2,8,1,8,,2b/7b,,,,
16,,2,4,3,4,2,,7,5,6,5,7,,46,,1,7,2,7,3,7,4,7,5,7,6,7,8,,,,
24,,7,8,6,,3,4,{8}2h[8:1],8h[8:1],6h[8:1],4h[8:1],
1-5[8:1],1,6-2[8:1],6,3-7[8:1],3,8w4[8:1],,
{0.5}8>7[4:7]`Cf,{8}4,4,4,4,5,5,5,5,
{16}4h[8:1]/6h[8:1],,,3h[8:1]/5h[8:1],,,4h[8:1]/6h[8:1],,,3h[8:1]/5h[8:1],,,2x/7x,,,,
{8}1-5[8:1],8,17,,8-4[8:1],1,28,,1-5[8:1],2,13,,8-4[8:1],7,68,,
26,4,37,5,24,35,46,57,1x-5[8:1]/8x,1,7-3[8:1],7,1w5[8:1],1,1b,,
4x/7x,,{16}3x/5x,,1,2,38,,8,7,16,,1,,26,,26,37,{4}4>5[4:1]/8-4[8:1],,,
5x/6x,{16}78,,2,3,48,,8,7,1/6pp3[2:1],,3,,{4}4x/6x,,1-5[8:1],1/C,
2x/8x,{16}4x/6x,,8,7,16,,1,2,38,,8,,37,,37,26,{4}1-5[8:1]/5<4[4:1],,,
1x/2x,{16}34,,7,6,15,,1,2,38,,6,,{12}4x/5x,,3x,2x/4x,,6x,5x/7x,8x,1x,2b/7b,,,
{8}2x-5[8:1]/6x-1[8:1],37,26,,3x/8x,{16}8,7,16,,1,,25,,25,36,{4}4-8[8:1]/7<8[4:1],,,
5x/7x,{16}24,,1,2,38,,8,7,16,,3,,{2}4x/5xpp1[2:1]*qq1[2:1],Cf,
{8}1x-5[8:1]/8x-4[8:1],27,1b/8b,,{16}3x/6x,,1,2,38,,8,7,
16,,1,,2x/6x,37,48,15,{2}2-7[8:1]/6-3[8:1],
{4}1x/5x,{16}34,,8,7,16,,1,2,38,,6,,{4}1xV37[4:1]/5xV73[4:1],,,2b/6b,
1-6[8:1]/8,1-4[8:1]/3,1-6[8:1]/7,{8}1-5[8:1]/3,2,
{4}1^4[8:1]*^6[8:1],1w5[8:1],1,3b/7b,
4-8[8:1]/8,4/5-1[8:1],2-6[8:1]/5,{8}2/7-3[8:1],8,
{4}1-4[8:1]*-6[8:1],1,{8}2x/8x,4x/5x,1x/7x,,
{4}1/8-3[8:1],6/8-5[8:1],2/8-3[8:1],{8}6/8-4[8:1],7,
{4}8^3[8:1]*^5[8:1],8w4[8:1],8,2b/6b,
1/5-1[8:1],4-8[8:1]/5,4/7-3[8:1],{8}37,2,
{12}1h[4:1],,3,3h[4:1],,5,5h[4:1],,7,7b,,,
{4}1-6[8:1]/8,1-4[8:1]/3,{8}1/4^6[8:1],6^8[8:1],8^3[8:1],,{4}4-8[8:1],4/5-1[8:1],{8}57,6,25,,
{4}1/8-3[8:1],6/8-5[8:1],{8}5^3[8:1]/8,3^1[8:1],1^6[8:1],,{4}B2/B3,B6/B7,Cf/E1/E5,,
{4}1-6[8:1]/8,1-4[8:1]/3,{8}1/4^6[8:1],6^8[8:1],8^3[8:1],,{4}4-8[8:1],4/5-1[8:1],{8}57,6,25,,
{12}1/8h[4:1],,6,6h[4:1],,4,4h[4:1],,2,2h[4:1],,7,{4}7h[4:1],
{32}5,6,7,8,1,2,3,4,{4}5xw1[8:1]/6x,5,
{1}3b/7b,,,,,,,,
E
Re:MASTER
最終更新:2026年04月11日 19:16