アットウィキロゴ

Cyaegha

アーティスト USAO

BPM BASIC ADVANCED EXPERT MASTER Re:MASTER
200 4 7+ 11 13+ -

EXPERT MASTER Re:MASTER
譜面制作者 シチミヘルツ 隅田川星人 -

BASIC


ADVANCED


EXPERT


MASTER

(200)
{4}3h[1:3]/5,,,B8,B6,,,B4,E3,,,E1,C,,78,6,
2hx[1:1]/5x,,1,8,7h[1:1],,5,4,3h[1:1],,1,8,7s3[4:1],,,1,
{8}3/4h[4:3],,,3,,,3,{16}3,4,{8}2h[4:3],,,7,,,6,{16}6,5,
{8}7h[4:3],,,4,,,3,{16}3,4,{4}2pp1[2:1],,7,6,
{8}5,1x/5x,5,2x/5x,5,3x/5x,5,4x/5x,4,4x/5x,4,4x/6x,4,4x/7x,4,4x/8x,
3b/7b,37,26,26,{32}1b,2,3,4,5,6,7,8,1,2,3,4,5,6,7,8,{4}1b/5b>6[8:3],,,C,
{4}5b/6b,47,{8}35,4,2,5,46,5,7,4,5-2[8:1]*-8[8:1],,,,
17,7,57,,34,3,13,,56,5,7b,3,4,2,1x/5x,,
34,,25,,46,5,7,4,35,4,2,5,46,5,37,,
2-4[8:1],1,2,5,7-5[8:1],8,7,4,{4}2-7[8:1],4w8[8:1],4,2b/7b,
3x/7x,48,{8}45,3,24,3,45,6,57,6,4-7[8:1]/5,3,2x/4x,,
28,2,24,,57,7,17,,B7/E8,B2/E2,{16}E6,B5,B4,E4,{4}C,2x/7x,
15,37,{8}45,6,57,6,45,3,24,3,4/5-2[8:1],6,5x/7x,,
7^5[8:1],8,7,4,2^4[8:1],1,2,5,{4}7-3[8:1],5w1[8:1],5,37,
1b/8b-4[8:1],3,{8}1/8-6[8:1],2,3,,1/8-4[8:1],,3,2,1/8-6[8:1],,4,,
1-5[8:1]/8,,6,,1-3[8:1]/8,7,6,7,1-5[8:1]/8,,6b,7,1-3[8:1]/8,,5,,
6,6,5,7,4,4,5,5,3,3,4,2,5,5,4,4,6,6,5,8,3,3,4,1,{4}4-6[8:1],2-4[8:1],6,2x/7x,
4-8[8:1]/5,7b,{8}4-2[8:1]/5,6,7,,4-8[8:1]/5,,7b,6,4-2[8:1]/5,,8,,
4/5-1[8:1],,2b,,4/5-7[8:1],3,2,3,4/5-1[8:1],,2b,3,4/5-7[8:1],,1,,
3h[8:1]/4h[8:1],,1x/8x,,6,6,5,5,5h[8:1]/6h[8:1],,1x/8x,,3,3,4,4,
3h[8:1]/4h[8:1],,1x/8x,,6,6,5,5,{4}7h[4:1],5h[4:1],4h[4:1],2h[4:1],
{0.5}Cf,{4}3h[1:1],4,B2,4,4h[1:1],3,B2,,
6hx[1:1],5,B7,5,5h[1:1],6,B7,6,6h[1:1],5,B7,5,5h[4:3],6,B6/B7,,
5b-3[8:1],6,7-5[8:1],8,1-7[8:1],2,3-1[8:1],4,
5-3[8:1],6,7-5[8:1],8,1-7[8:1],2,3-1[8:1],4,
4b-6[8:1],3,2-4[8:1],1,8-2[8:1],7,6-8[8:1],5,
4-6[8:1],3,2-4[8:1],1,8-2[8:1],7,45,2b/7b,
{8}5/6h[1:1],,,5,,,5,{16}1,2,{8}3h[1:1],,,4,,,4,{16}8,7,
{8}6h[1:1],,,5,,,5,{16}8,1,{4}2h[2:1],,4h[4:1],5h[4:1],
{8}6,6,6,6,{16}6,5,{8}6,6,6,4,4,4,4,{16}4,5,{8}4,4,4,
6,6,6,6,{16}6,5,{8}6,6,6,45,3,12,8,37,,15,,
5/6h[4:3],,,5,,5,3h[1:1],,4,,,4,,4,7h[1:1],,
5,,,5,,5,{4}2h[4:1],5h[4:3],1hx[4:3],,,
{8}8x,1x/8x,8,2x/8x,8,3x/8x,8,4x/8x,4,4x/5x,4,4x/6x,4,4x/7x,4,4x/8x,
3b/7b,37,26,26,{32}1b,2,3,4,5,6,7,8,1,2,3,4,5,6,7,8,{4}1bpp8[8:3]/5bpp4[8:3],,,C,
{8}48,6,14,3,58,6,14,3,{4}5/7b-5[8:1],7b/8-4[8:1],1-3[8:1]/8b,1b/3,
{8}15,3,58,6,14,3,58,6,{4}2b-4[8:1]/4,1-5[8:1]/2b,1b/8-6[8:1],6/8b,
{8}48,6,14,3,58,6,14,3,{4}5/7b-5[8:1],7b/8-4[8:1],1-3[8:1]/8b,1b/3,
7-4[8:1],3-8[8:1],6-1[8:1],2-5[8:1],7-4[8:1],3-8[8:1],5,2x/7x,
1-6[8:1]/8,1b/8b,{8}1^4[8:1]/8,7,1x/6,,1-6[8:1]/8,,1x/6x,7,1^4[8:1]/8,,1x/5,,
1/8-3[8:1],,1/8x,,1/8^5[8:1],2,3/8x,2,1/8-3[8:1],,3/8x,2,1-4[8:1]/8-5[8:1],,1b/8b,,
3,3,4,2,6,6,5,7,3,3,4,1,6,6,5,8,37,37,26,26,15,15,48,48,
{16}5x/7x,,,2x/4x,,,1x/8x,,{4}2x-4[8:1]/7x-5[8:1],2b/7b,
{8}3-7[8:1],3,5-8[8:1],5,1-4[8:1],1,7-3[8:1],7,
5-2[8:1],5,8-4[8:1],8,1-5[8:1],1,7-4[8:1],7,
2^5[8:1],2,6^1[8:1],6,3v8[8:1],3,7v4[8:1],7,{4}1-4[8:1]*-6[8:1],1b,8w4[8:1],8b,
{8}7-3[8:1],7,4-1[8:1],4,8-5[8:1],8,2-6[8:1],2,
4-7[8:1],4,1-5[8:1],1,8-4[8:1],8,2-5[8:1],2,
7^4[8:1],7,3^8[8:1],3,6v1[8:1],6,2v5[8:1],2,{4}8w4[8:1],8b,1w5[8:1],1b,
4hx[48:11]/8hx[48:11],{48}3b/7b,2x/6x,1x/5x,4x/8x,,,,,,,,,
{4}2-5[8:1]/6-1[8:1],26,{8}7-4[8:1],7,3-8[8:1],3,6-1[8:1],6,2-5[8:1],2,
7-3[8:1],7,8-4[8:1],8,1-5[8:1],1,2-6[8:1],2,3-7[8:1],3,4-8[8:1],4,5,5,2b/6b,,
{16}3h[8:1],,4,3,{8}4,25,1,25,8,47,{16}6h[8:1],,5,6,{8}5,47,8,47,1,25,
{8}37,37,26,26,15,15,48,48,{16}57,,,24,,,18,,{4}1-4[8:1]/8-5[8:1],18,
{1}B3/B6/Cf/E3/E7,,,,,,,,,
E

Re:MASTER


名前:
コメント:

タグ:

+ タグ編集
  • タグ:
最終更新:2026年04月11日 21:52