BASIC
ADVANCED
EXPERT
MASTER
(156)
{4}2pp5[4:5]/6,,,,,,{16},,6,5,6,5,,,
{4}3/7s3[4:3],,,,,4w8[4:1],,,
2qq3[4:5]/6qq7[4:5],,,,,,{16},,,48,,4h[8:1]/8h[8:1],,,2V83[2:1]/6V47[2:1],,
{4},,,{16}4/8h[4:1],,,,1,,,
2h[8:1]/3h[8:1],,,1h[8:1]/8h[8:1],,,6h[8:1]/7h[8:1],,,18,,
{4}2/7^4[2:1],C,C,C,2^5[2:1],C,C,{16}E8,E4,E7,E3,
{4}C,C,E2/C,E4/C,2-5[8:1]/7-4[8:1],,{16}28,,37,,6,5,,5,
4/7h[8:1],,,3/6h[8:1],,,2/5h[8:1],,,1/4h[8:1],,,3/8h[8:1],,,
2h[8:1]/7,,,1h[8:1]/6,,,5/8h[8:1],,,4/7h[8:1],,,3/6h[8:1],,,2/5h[8:1],,
2,4,3,5,4,6,5,7,4,8,3,7,2,6,1,5,
{32}2x,3x,4x,5x,6x,7x,8x,1x,2xq5[8:3],3x,4x,5x,6x,7x,8x,1x,{4}2x/6x,,
4b/8b,{16}7,5,6,5,7,4,5,4,7-4[8:1],5,6,5,
,,,,2,4,3,4,2,5,4,5,2-5[8:1]*v5[8:1],4,3,,
,,,,7,5,6,5,7,4,5,4,7-4[8:1],5,6,5,
,,,,2,4,3,4,2,2,,6,5,7,,,
{4}4x/8x,{24}2,,4,3,,4,2,,5,4,,5,2-5[8:1],,4,3,,,
,,,,,,7,,5,6,,5,7,,4,5,,4,7-1[8:1]*-5[8:1],,5,6,,,
{16},,,,3,3,4,4,2,2,7,7,5,5,6,6,
,,1h[8:1]/7h[8:1],,,3h[8:1]/4h[8:1],,,
2h[8:1]/8h[8:1],,,5h[8:1]/6h[8:1],,,17,,
2b/6b,,,,{24}7,,5,6,,4,5,,4,6,,3,7-3[8:1],,5,6,,4,
,,,,,,2,,4,3,,4,{16}2hx[8:1]/5hx[8:1],,,4h[8:1]/7h[8:1],,,1x/5x,,
,,,,{24}2,,4,3,,5,4,,5,3,,6,2-6[8:1],,4,3,,5,
,,,,,,7,,5,6,,5,{16}4hx[8:1]/7hx[8:1],,,2h[8:1]/5h[8:1],,,17,,
2x/6x,,,,{24}7,,5,6,,4,5,,4,6,,3,7-3[8:1],,5,6,,4,
,,,,,,2,,4,3,,5,4,,6,3,,7,2-5[8:1]*-7[8:1],,1,3,,,
{16},,,,6,6,5,5,7,7,2,2,4,4,3,3,
,,2h[8:1]/8h[8:1],,,5h[8:1]/6h[8:1],,,
1h[8:1]/7h[8:1],,,3h[8:1]/4h[8:1],,,28,,
3b/7b,,,,2,4,3,5,4,6,5,7,4-1[8:1],6,3,5,4,
,,,7,5,6,4,5,3,4,2,5-8[8:1],3,6,4,5,
,,,1,7,5,6,2,8,3,4,1,7,5,6,1b,,,,15,26,37,48,{2}1p4[8:1]/5p8[8:1],
{16}2h[8:1]/6,,,3h[8:1]/7,,,4h[8:1]/8,,,1/5h[8:1],,,2/6h[8:1],,,
3/7h[8:1],,,4/8h[8:1],,,1h[8:1]/5,,,2h[8:1]/6,,,3h[8:1]/7,,,4h[8:1]/8,,
7,5,6,4,5,3,4,2,5,1,6,2,7,3,8,4,
{32}7x,6x,5x,4x,3x,2x,1x,8x,7xp4[8:3],6x,5x,4x,3x,2x,1x,8x,{2}3x/7x,
{4}1b>5[4:5]/Ch[1:7],,,,,,,{16},4h[8:1],,,{0.5}3p5[2:3],
{2}6q3[4:5],,,{16},,,2,,2h[8:1],,,{1}1V72[2:1],
{16}2h[8:1],,,3h[8:1],,,4h[8:1],,,3h[8:1],,,2,2,,,
{2}8<4[2:3]/Ch[2:7],,,,5q2[1:1],,,{16}2,,1h[8:1],,,8,,,
3/7h[8:1],,,2/6h[8:1],,,1/5h[8:1],,,4h[8:1]/8,,,3h[8:1]/7,,, 2h[8:1]/6,,,1h[8:1]/5,,,4/8h[8:1],,,3/7h[8:1],,,2/6h[8:1],,,1/5h[8:1],,
2,4,3,5,4,6,5,7,4,8,3,7,2,6,1,5,
{32}1x,2x,3x,4x,5x,6x,7x,8x,1x,2x,3x,4x,5x,6x,7x,8x,{4}1b/Cf,3<7[4:1]/7-4[8:1],
7>3[4:1],4-1[8:1],4xqq8[4:3],8b,,7-4[8:1],7x,2-5[8:1]/6>2[4:1],
2<6[4:1],5-8[8:1],5x>7[2:1],1b,,3,{16}2x/4x,24,,37,3<7[4:1]/7v4[8:1],,28,,
{4}7>3[4:1],4-1[8:1],4xqq8[4:3],8b,,7-4[8:1],7x,2v5[8:1]/6>2[4:1],
2<6[4:1],5-8[8:1],5x>7[2:1],1b,,3,1b/5b,3V57[4:1]/7-4[8:1],
7V13[4:1],4-1[8:1],4xqq8[4:3],8b,,7-4[8:1],7x,2-5[8:1]/6V42[4:1],
2V86[4:1],5-8[8:1],5x>7[2:1],1b,,3,{16}2x/4x,24,,37,3V57[4:1]/7v4[8:1],,28,,
{4}7V13[4:1],4-1[8:1],4xqq8[4:3],8b,,7-4[8:1],7x,2v5[8:1]/6V42[4:1],
2V86[4:1],5-8[8:1],5x>7[8:3],1b,,2-5[8:1]/6-1[8:1],,3b/7b,
{16}7-4[8:1],8,,8,7,,1,,2-5[8:1],1,,1,2,,8,,
6-1[8:1],5,,5,6,,4,,3-8[8:1],4,,4,3,,5,,
7^4[8:1],8,,8,7,,1,,2^5[8:1],1,,1,2,,8,,
3/7h[16:3],,,,8,7,2,1,3/8b,,,1b/6,,,37,,
2v5[8:1],1,,1,2,,8,,7v4[8:1],8,,8,7,,1,,
3v8[8:1],4,,4,3,,5,,6v1[8:1],5,,5,6,,4,,
{4}3b-1[8:1]/8b-4[8:1],,1h[4:1]/4-7[8:1],{32}4,,,,2,3,4,5,
{16}8b,,,1b/7,,,3/8b,,,2b/6h[8:1],,,,,45,,
2-5[8:1],1,3,1,2,,8,,7-4[8:1],8,6,8,7,,1,,
2,4,3,5,4,6,5,7,4/8b,,,2b/5,,,4b/8,,
7^4[8:1],8,6,8,7,,1,,2^5[8:1],1,3,1,2,,8,,
1/7h[16:3],,,,8,7,2,1,3/8b,,,1b/6,,,4/8b,,
6v1[8:1],5,7,5,6,,4,,3v8[8:1],4,2,4,3,,5,,
7v4[8:1],8,6,8,7,,1,,3,4,1,8,5,6,1,8,
{4}3b-8[8:1]/7b-4[8:1],,2b/6b,{16}4,4,5,5,
,,3b/8b,38,,1b/6b,16,,3b/7b,,{32}1,28,3b/7b,46,{8}5<5[1:1]*>5[1:1],3b/7b,
{1}5b,,,,,,
E
Re:MASTER
最終更新:2026年07月13日 22:02