アットウィキロゴ

VANTABLACK RAVER

アーティスト DIVELA feat.桐谷こむぎ

BPM BASIC ADVANCED EXPERT MASTER Re:MASTER
170 4 7+ 11 13+ -

EXPERT MASTER Re:MASTER
譜面制作者 Jack はっぴー -

BASIC


ADVANCED


EXPERT


MASTER

(170)
{16}27,,,18,,,45,,{2}3-5[8:1]/6-4[8:1],
{8}37,8,8,5,4,{16}4,6,,6,5,,3,4,,7,5,,2,4,,7,5,,48,,,,
{8}26,1,1,4,5,{16}5,3,,3,4,,6,5,,3,4,,7,5,,2,4,,15,,,,
3,3,4,2,,6,5,,7,8,,2,4,3,5,4,6,6,5,7,,3,4,,2,1,,7,5,6,4,5,
3,3,4,2,,6,5,,7,8,,2,4,,45,,45,,,57,,,18,,3,3,4-8[8:1],2,,,
{8}45,6,6,,,,{16}5,5,4,,,,
{8}37,6,5,4,4,5,E4/E6,B3/B6,B2/B7,E2/E8,1v4[8:1],1,8v5[8:1],8,4,4,
6,6,3,3,5s1[2:1],5,6,6,7x,7x,8,8,1,1,2^7[8:1],2,
6,6,5,4,3-8[8:1],3,4-8[8:1],4,1,1,8,8,6,5,7V51[4:1],7,
4,3,2V48[4:1],2,5,6,7,7,46,3,35,6,46,3,25,6,
{16}47,,,25,,,57,,,24,,,{8}5-2[8:1],6,
57,8,8,4,{16}3,3,4,2,,6,5,7,1,8,,37,,6,5,6,7,6,,1,,3,4,,
35,,,46,,,{8}5/7-5[8:1],5/7-1[8:1],,,,
{16}28,,,13,,,{8}2-4[8:1]/4,2-8[8:1]/4,,,,
4,{16}3,4,,6,{8}5,8-4[8:1],8,1,1,5,{16}6,5,,3,{8}4,1-5[8:1],1,8,8,
4,{16}3,4,2,4,3,,15,,6,5,7,5,6,,48,,,2-6[8:1]/6,
{4},,1^4[8:1]/8^5[8:1],1x/8x,
{8}1^7[8:1],5,1^3[8:1],5,1-7[8:1],5,1-3[8:1],5,1,5,
4-8[8:1],4,5-1[8:1],5,3x,3x,4,5,5,2-7[8:1]/6-3[8:1],37,2b/6b,,1b/5b,,
6-4[8:1],2-4[8:1],6-1[8:1],2-5[8:1],6,2,7,7,8,
1-4[8:1],1,8-5[8:1],8,4-1[8:1],4,5-8[8:1],5,1,,
{2}3/4<8[4:1],5>1[4:1],4<8[4:1],
{8}1,{24}B2,B3,E4,B7,B6,E6,{4}1,8<1[8:3],B4/B5/Cf,,{8},1b,,
7-4[8:1],7,3-8[8:1],3,{16}6,,6,5,,5,7,,
{8}2-5[8:1],2,6-1[8:1],6,{16}3,,3,4,,4,2,,
35,,,46,,,37,,B4,B5,E3,E7,E2,E8,E4,,
7,5,7,5,,1,4,,8,5,,1,4,,2,,2,4,2,4,,8,5,,1,4,,8,5,,7,,
7,5,7,5,,1,4,,8,5,,1,4,,2,,2h[16:3],,,3h[16:3],,,4,,7h[16:3],,,6h[16:3],,,5,,
{8}47,4/7h[8:67],,,,,,,E1,B1,B3,E4,5,5,5,5,E1,B8,B3,E4,5,5,5,5,
E1,B1,B3,E4,5,5,5,5,E1,B1,B3,E4,5,5,5,5,
E8,B7,B3,E4,5,5,5,5,E1,B8,B3,E4,5,5,5,5,
E8,B7,B3,E4,5,5,5,5,E1,B8,B3,E4,5,5,5,5,
{16}46,,,24,,,57,,,18,,,{8}5-2[8:1]/6p2[8:1],47,,,
1,1,{16}6,6,5,7,,3,4,2,8,1,,26,,3,4,3,2,3,,8,,6,5,,
46,,,35,,,{8}2-4[8:1]/4,2-8[8:1]1/4,,,,
{16}17,,,68,,,{8}5/7-5[8:1],5/7-1[8:1],,,,
5,{16}6,5,,3,{8}4,1-5[8:1],1,8,8,4,{16}3,4,,6,{8}5,8-4[8:1],8,1,1,
5,{16}6,5,,3,{8}4,1-5[8:1],1,8,2,{16}3x/5x,,,5x/7x,,,3x/6x,,
1,8,3,6,2,7,4,5,1x,2,3,4,1x,2,3,4,8x,7,6,5,4,,,,
8x,7,6,5,8x,7,6,5,1x,2,3,4,1x,2,3,4,
8x,7,6,5,8,7,6,5,1x,1,2,2,3,3,4,4,
35,,,46,,,45,,{4}4^1[8:1]/5^8[8:1],4x/5x,2b/7b,
{8}8^2[8:1],4,8^6[8:1],4,8-2[8:1],4,8-6[8:1],4,8,4,
5-1[8:1],5,4-8[8:1],4,6x,6x,5,4,4,7-2[8:1]/3-6[8:1],26,3b/7b,,4b/8b,,
3-5[8:1],7-5[8:1],3-8[8:1],7-4[8:1],3,7,2,2,1,
8-5[8:1],8,1-4[8:1],1,5-8[8:1],5,4-1[8:1],4,8,,
{2}5>1[4:1]/6,4<8[4:1],5>1[4:1],
{8}8,{24}B7,B6,E6,B2,B3,E4,{4}8,1b,3b/7b,
{8},46,8,35,1,46,27,18,27,B4/B5/E4/E6,18,B3/B6/E3/E7,18,
7,46,35,27,B4/B5/E4/E6,18,B3/B6/E3/E7,18,
2,7,18,27,B4/B5/E4/E6,18,B3/B6/E3/E7,18,
{16}4,5,4,5,3,6,3,6,4,5,2,7,3,6,1,1,
{24}8x,7,6,5,4,3,1x,8,7,6,5,4,{8}3-7[8:1],3,6,5,
{16}4,4,5,5,3,3,6,6,2,2,7,7,1,1,8,8,
{24}E3,B3,B4,E7,B6,B5,E2,B2,B3,E8,B7,B6,{16}1,8,1,8,1b,,,,
{12}2b/6b,8,1,3b/7b,4,5,
{1}2b/6b,,,,,,
E

Re:MASTER


名前:
コメント:

タグ:

+ タグ編集
  • タグ:
最終更新:2026年04月12日 09:22