BASIC
ADVANCED
EXPERT
MASTER
(190){1},
{4}2xqq2[4:1]/6xqq6[4:1],,,4b/8b,
{8}3,3,4,3,25,,4,4,6,6,5,6,47,,5,5,
3,3,4,3,25,,4,4,6,6,5,6,{4}4-2[8:1]/7-1[8:1],4x/7x,
{8}2x,2,1,2,38,,1,1,7,7,8,7,16,,8,8,
2,2,1,3,7,7,8,6,{16}4,5,4,5,3,6,3,6,{2}1s5[4:1],
{8}6,6,4,5,37,,6,6,4,4,5,4,26,,3,3,
{16}5b,4b,5b,4b,{8}5b,37,37,,6,6,
4,4,6,2,{4}1-4[8:1]/5-8[8:1],1x/5x,
{8}8x,8x,7,7,6,6,5,5,4,4,3,3,2,2,1,1,
78,78,16,16,25,25,34,34,{16}5,6,7,8,1,2,3,4,5,6,7,8,1,2,3,4,
{1}Cf,,B4/B5,E3/E7,1xs5[8:3]*s5[8:3]/8x,4xz8[8:3]/5x-8[8:3],
{8}7x/8x,1x/6x,,,1x/2x,3x/8x,,,,3x/4x,2x/5x,,{16}4x/7x,,,3x/8x,,,1x/2x,,
{4}2h[1:1],1,{16}E2,,,E3,,,E4,,{4}6h[1:1],5,{16}E6,,,E7,,,E8,,
{4}2h[1:1],1,{16}E2,,,E3,,,E4,,{8}6,6h[8:7],5,,{16}E6,,,E7,,,E8,,
{8}1,1,15,1,16,1,17,1,18,8,48,8,38,8,28,8,
{16}1,8,1,8,2,7,2,7,3,6,3,6,4,5,4,5,{12}3,3,3,6,6,6,{4}1w5[8:1],1b,
{2}B2/B3/B6/B7/E3/E7,,B5/B6/B7/B8/E7,B1/B2/B3/B4,
E4/E5/E6,E3/E7,Chf[2:1],8b,
1x>6[8:3],B2/B3,{4}8x<3[8:3],8x,B6/B7,,
{2}1x>6[8:3],B2/B3,{8}8x<3[8:3],,,2,2,,1,,
{4}6/8b>6[2:1],8,7,,{8}1b<3[2:1]/3,,,2,2,,1,,
{4}8b-4[4:1],4^1[4:1],1-5[4:1],5^8[4:1],8,1,{8}45,2x/7x,,,
1/2b,3,45,{16}6,5,{8}6,7,18,2,3/4b,2,18,{16}7,8,{8}7,16,25,34,
5-1[8:1],1,2,3,4-8[8:1],8,7,6,5,26,26,,{16}3h[16:3],,,4,3,,2,,
{8}5/6b,7,18,{16}2,1,{8}2,3,45,6,7/8b,6,45,{16}3,4,{8}3,25,16,78,
1-5[8:1],5,6,7,8-4[8:1],4,3,2,1,37,37,,
{16}2hx[8:1]/5hx[8:1],,,2hx[8:1]/5hx[8:1],,,2x/5x,,
7,6,5,4,1,2,3,4,7,6,5,4,3,2,1,8,2,3,4,5,8,7,6,5,2,3,4,5,6,7,8,1,
7,6,5,4,1,2,3,4,7,6,5,4,3,2,1,8,2,3,4,5,8,7,6,5,1,2,3,4,1b/5b,,,,
7x,5,6,5,,,2x,4,3,4,,,7x,5,6,4,7,5,7,5,6,4,6,4,5,3,5,3,6,4,6,4,
8,7,6,5,4,3,2,1,4,5,6,7,8,1,2,3,4x/8x,7,6,5,14,2,3,4,{4}5/8w4[8:1],8b,
3x/5x,18,{16}2h[8:1]/4h[8:1],,,3h[8:1]/5h[8:1],,,{8}46,
,15,37,,{16}5h[8:1]/7h[8:1],,,4h[8:1]/6h[8:1],,,35,,
{4}24,18,{16}2h[8:1]/4h[8:1],,,3h[8:1]/5h[8:1],,,46,,
,,18,27,{4}3/6V84[4:1],{16}4,,,2,,,15,,
{4}3b-8[8:1]/7,7b-4[8:1],{16}1b-5[8:1],,,6b,,,8b,,
,,2b/6b,37,{4}4/8-4[8:1],{16}3-8[8:1],,,5,,,7,,
{4}15,38,{16}25,,,46,,,57,,{12}6x,6,6,5,5,5,4,4,4,1x,,,
3x,5,4,6,4,5,3,5,4,B7/E7,,,6x,4,5,3,5,4,6,4,5,B2/E3,,,
1x,4,3,7,5,6,2,4,3,B7/E7,,,8x,5,6,2,4,3,7,5,6,B2/E3,,,
1x,1,1,2x,2,2,3x,3,3,4x,4,4,5x,5,5,6x,6,6,7x,7,7,8x,8,8,
1b,7,2,6b,3,5,4b,6,3,7b,2,8,{32}3b,4,5,6,7,8,1,2,
3b,4,5,6,7,8,1,2,3b,4,5,6,7,8,1,2,{4}3x/Cf,
{8}1x/2x,1hx[4:1]/2hx[4:1],,,4x/7x,4hx[4:1]/7hx[4:1],,,
2x/5x,2hx[4:1]/5hx[4:1],,,{4}4w8[8:1],4b,
1x>5[4:1],5<1[4:1],1s5[4:1],5,{8}6,7,4x/8x,,{16}7h[16:3],,,5,7,,3,,
{8}12,3,45,6,78,6,45,3,12,3,45,{16}6,5,{8}6,47,38,12,
{4}8<4[4:1],4>8[4:1],8z4[4:1],4,{8}3,2,1x/6x,,45,2x/7x,,,
1b/8b,{16}6,5,7,,3,4,{8}1,28,37,46,5,{16}3,4,2,,6,5,{8}8,17,26,35,
{16}4x,4x,4x,4x,{8}4x,35,2/6-1[8:1],6,3-8[8:1],3,7,7,16,{16}7,8,{8}7,1b/6b,,47,
47,{16}2,1,3,,7,8,{8}5,46,37,28,1,{16}7,8,6,,2,1,{8}4,35,26,1h[8:1]/7,
{16}8x,7,6,5,4,3,2,1,48,5,6,7,8,1,2,3,48,7,6,5,14,2,3,4,57,,,24,,,18,,
{1}2b/7b,,,,,,
E
Re:MASTER
最終更新:2026年09月13日 21:31