アットウィキロゴ

Destr0yer〈でらっくす〉

アーティスト 削除 feat. Nikki Simmons

BPM BASIC ADVANCED EXPERT MASTER Re:MASTER
90 2 7+ 11 12+ -

EXPERT MASTER Re:MASTER
譜面制作者 はっぴー サファ太 -

BASIC

(90.0){1},
{2}1,1,
{2}2,2,
{2}3,3,
{2}4/5,4/5,
{2}5,5,
{2}6,6,
{2}7,7,
{2}1/8,1/8,
{1}1b/8b,
{1}8h[1:1],,
{1}1h[1:1],,
{2}8,8,
{2}7,7,
{2}6,6,
{2}5,4/5,
{2}B3,B2,
{2}B1,B8,
{2}B7,B6,
{1}4h[2:1]/5h[2:1],
{2}B6,B7,
{2}B8,B1,
{2}B2,B3,
{1}Chf[1:1],,
{1}4h[2:1],
{1}3h[2:1],
{1}2h[2:1],
{4}1,1,8,8b,
{1}8h[2:1],
{1}7h[2:1],
{1}6h[2:1],
{1}4h[2:1]/5h[2:1],
{2}3/4,3/4,
{4}3,4,3,,
{2}5/6,5/6,
{4}6,5,6,,
{2}3/4,3/4,
{4}5,4,5,,
{1}5h[1:1]/6h[1:1],,
{2}B4/B5,B3/B6,
{1}Chf[1:1],,
{4}8,8,8,,
{4}7,7,7,,
{4}6,6,6,,
{1}5h[2:1],
{4}4,4,4,,
{4}3,3,3,,
{4}2,2,2,,
{1}1h[2:1],
{2}8,8,
{2}7,7,
{2}6,6,
{1}5-1[4:3],,
E

ADVANCED

(90.0){1}C1f,
{8}3,3,4,,4/5,,5/6,,
{8}6,6,5,,4/5,,3/4,,
{4}4/3h[2:1],5,4,2/5,
{4}5/6h[2:1],4,5,4/7,
{8}2,2,1,,1/8,,7/8,,
{8}7,7,8,,1/8,,1/2,,
{4}1/2h[2:1],8,1,7/8,
{4}8/1h[2:1],7,8,2b/7b,
{1}4z8[2:1],
{4}7h[2:1],8,1,1/8,
{4}8h[2:1],1,2,1/2,
{4}2h[2:1],1,8,1/8,
{4}1h[2:1],8,7,7/8,
{4}6h[1:1],,5,5,
{4}5h[1:1],,4,4,
{4}4h[1:1],,3,3,
{4}3h[2:1],,4x,2x/5x,
{1}7v4[8:3],
{1}3v6[8:3],
{1}5q1[8:3],
{1}2q6[8:3],
{4}E7/B7,B1/B8,B2/E3,,
{4}B3/E3,B4/B5,B6/E7,,
{4}E4/E6,E3/E7,B4/B5,B2/B7,
{1}Chf[1:1],,
{4}3h[4:3]/4h[4:1],,5,4,
{8}2,1,8,7h[8:3],,,8b,,
{4}5h[4:1]/6h[4:3],,4,5,
{8}7,8,1,2h[8:3],,,1b,,
{4}3h[2:1]/4h[4:1],,5h[4:1],4,
{8}3,2,1,8h[8:3],,,1b,,
{4}5/7,4/6,3/5,3qq7[4:3]/4pp8[4:3],{1},
{8}1/2,,3/4,,5,6,7,,
{8}7/8,,5/6,,4,3,2,,
{8}1/8,,2/7,,6,5,4,,
{4}3/4,5/6,2b/7b,,
{8}5/6,,7/8,,1,2,3,,
{8}3/4,,5/6,,3/6,3/6,3/6,,
{4}B4,C1,B8,,
{4}B5,C1,B1,,
{2}B5/E7,E3/B4,
{1}Chf[1:1],
{4},,,1x/8x,
{8}7,7,8,,1/8,,3/4,,
{8}2,2,1,,1/8,,5/6,,
{4}8/7h[2:1],1,8,2/5,
{4}1/2h[2:1],8,1,4/7,
{8}6,6,5,,4/5,,1/2,,
{8}3,3,4,,4/5,,7/8,,
{4}5/6h[2:1],4,5,3/8,
{4}4/5h[2:1],3,4,6b/3bV17[2:1],{1},
{1}7V53[2:1],
{2}B1/B2,B5/B6,
{1}Ch[1:1],,
E

EXPERT

(90.0){4}C1f,,,5,
{16}3h[16:3],,4,5h[16:3],,4,3V15[4:1],,4,,,,,,,,
{16}6h[16:3],,5,4h[16:3],,5,6V84[4:1],,5,,,,,,,,
{16}3,3,5,5,4,4,5,5,3^5[16:1],3,6,6,,,,,
{16}6,6,4,4,5,5,4,4,6^4[16:1],6,3,3,,,,,
{16}6h[16:3],,5,4h[16:3],,5,6V84[4:1],,5,,,,,,,,
{16}3h[16:3],,4,5h[16:3],,4,3V15[4:1],,4,,,,,,,,
{16}6,6,4,4,5,5,4,4,6^4[16:1],6,3,3,,,,,
{16}3,3,5,5,4,4,5,5,3^5[16:1],3,6,6,,,,,
{1}Ch[4:3],
{16},,,,3h[2:1],,,5h[16:13],,,,,,,,,
{16}3,,,,4h[8:3],,,6h[16:7],,,,,3,,3,,
{16}4,,5,,6h[2:1],,,4h[16:13],,,,,,,,,
{16}6,,,,5h[8:3],,,3h[16:7],,,,,6,,6,,
{16}4/5,,,,2h[8:3],,,5h[16:13],,,,,2,,2,,
{16}3,,,,4h[8:3],,,7h[16:5],,,,,2,,,,
{16}2,,,,7h[8:3],,,4h[16:13],,,,,7,,7,,
{16}6,,,,5h[8:3],,,2h[16:5],,,,,7,,,,
{16}1/8,,,,B2/B7,,,,E5,,B2,C1,B6,,,,
{16}1/8,,,,B2/B7,,,,E5,,B6,C1,B2,,,,
{16}1/8,,,,B2/B7,,,,E5,,B7,C1,B3,,,,
{1}Ch[2:1],
{16}2/7,,,,E4/E6,,,,E5,,E3,C1,E7,,,,
{16}2/7,,,,E4/E6,,,,E5,,E7,C1,E3,,,,
{16}2/7,,,,E4/E6,,,,E5,,E3,C1,E7,,,,
{1}Chf[1:1],
{16},,,,,,,,,,,,4,4,5,4,
{8}3h[4:1]/6h[4:1],,,2/7,1-5[16:1]/8-4[16:1],1/8,,,
{8}6,5/6,4/5,3/4,2-7[16:1]/3-6[16:1],2/3,,,
{8}4/7h[4:1],,5^2[8:1],5,,,1,8,
{8}7,5/6,4/5,3/4,2-7[16:1]/3-6[16:1],2/3,,,
{8}7/4h[4:1],,6^1[8:1],6,,,3/5,2,
{8}1,1/5,2/6,3/7,4-1[16:1]/8-5[16:1],4/8,,,
{16}1,,2,,3/6,,,,1x/5x,,,3x/7x,,,8x/4x-1[4:1],,
{16},,,,,,,,2/7,2/7,2/7,2b/7b,,,1,1,
{16}2/8,,7,,4/6,,8,8,1/7,,2-5[8:1],2,6-1[8:1],6,,,
{16},,,,3,3,5,5,2/6,,7-4[8:1],7,3-8[8:1],3,,,
{16},,,,8,,2,,4,,6-3[8:1],6,2qq7[2:1],2,,,
{16},,,,,,,,,,,,3/6,,8,8,
{16}1/7,,2,2,3/5,,1,1,2/8,,7-4[8:1],7,3-8[8:1],3,,,
{16},,,,6,6,4,4,3/7,,1-5[8:1],1,7-3[8:1],7,,,{1},
{1}5V31[8:5]*V71[8:5],
{1}1V75[8:5]*V35[8:5],
{1}Chf[1:1],
{4},,,4/5,
{16}7h[16:3],,5,4h[16:3],,5,6V84[4:1],,5,,,,,,,,
{16}2h[16:3],,4,5h[16:3],,4,3V15[4:1],,4,,,,,,,,
{16}7,7,4,4,5,5,2,2,6-3[8:1],6,4,4,,,,,
{16}2,2,5,5,4,4,7,7,3,3,5,5,4/5,,,,
{16}1,,{641}B7,,,,,,,,,,,,,,,,,,,,{639}C1,,,,,,,,,,,,,,,,,,,,{16}B3,8,,8,,8,,{641}B2,,,,,,,,,,,,,,,,,,,,{639}C1,,,,,,,,,,,,,,,,,,,,{16}B6,1,,1,,
{16}1,,{641}B7,,,,,,,,,,,,,,,,,,,,{639}C1,,,,,,,,,,,,,,,,,,,,{16}B3,8,,8,,8,,{641}B2,,,,,,,,,,,,,,,,,,,,{639}C1,,,,,,,,,,,,,,,,,,,,{16}B6,1,,1,,
{16}2,,{641}E7,,,,,,,,,,,,,,,,,,,,{639}E6,,,,,,,,,,,,,,,,,,,,{16}E5,7,,{641}E3,,,,,,,,,,,,,,,,,,,,{639}E4,,,,,,,,,,,,,,,,,,,,{16}E5,2,,{641}E7,,,,,,,,,,,,,,,,,,,,{639}E6,,,,,,,,,,,,,,,,,,,,{16}E5,7,,{641}E3,,,,,,,,,,,,,,,,,,,,{639}E4,,,,,,,,,,,,,,,,,,,,{16}E5,
{16}2,,{641}E7,,,,,,,,,,,,,,,,,,,,{639}E6,,,,,,,,,,,,,,,,,,,,{16}E5,7,,{641}E3,,,,,,,,,,,,,,,,,,,,{639}E4,,,,,,,,,,,,,,,,,,,,{16}E5,2,,{641}E7,,,,,,,,,,,,,,,,,,,,{639}E6,,,,,,,,,,,,,,,,,,,,{16}E5,7,,{641}E3,,,,,,,,,,,,,,,,,,,,{639}E4,,,,,,,,,,,,,,,,,,,,{16}E5,
{2}2<3[2:7],E1,
{2}E8,E7,
{2}E6,E5,
{2}C1,{4}E1,,
E

MASTER

(90)
{4} Cf,,,4b/5b,
{16} 2-5[8:1],,1,8,2,,7,,2-5[8:1],,1,8,2,,7,,7-4[8:1],,8,1,7,,2,,7-4[8:1],,8,1,7,,2,,
3,3,4,2,6,6,5,7,3,3,4,2,12,18,,,6,6,5,7,3,3,4,2,6,6,5,7,78,18,,,
7-4[8:1],,8,1,7,,2,,7-4[8:1],,8,1,7,,2,,2-5[8:1],,1,8,2,,7,,2-5[8:1],,1,8,2,,7,,
2,2,4,3,7,7,5,6,2,2,4,3,34,45,,,5,5,4,6,4,4,5,3,6,6,5,7,4x/7x<2[4:3],4x/7x,,,
{1} Ch[2:1],
{4} 45,
{16} 4h[8:3],,,6h[16:13],
{8} ,,,4,5h[8:5],,
{16} ,,,7h[16:3],
{4} ,
{16} 46,,5,4,
{4} 3h[4:1]/5h[8:5],
{16} ,,,4h[16:7],
{4} ,
{16} 6h[8:3],,,3h[16:3],
{4} ,
{16} 45,,7h[4:1],2h[16:3],
{4} ,
{16} 18,18,,,
{4} 6h[4:1]/3h[8:5],
{16} ,,5,4h[8:3],,
{4} ,
{16} 2,3,4,
{8} 2h[16:3]/5h[4:1],,,
{16} 4h[4:1],5,,,7,6,
{4} 35,4/6V85[8:3],
{16} 4,,,3,,,2,,2,,5,4,,35,,4,5,4,,46,,35,,5,4,45,,,
{4} 8-4[4:1],4<8[4:1],
{16} E2,,E3,B3,
{4} B4,1-5[4:1],5>1[4:1],
{16} E8,,E7,B6,
{4} B5,8-4[4:1],4<8[4:1],
{16} E2,,E3,B3,
{4} B4,4h[4:1]/5h[4:1],
{16} ,,4,5,4,4,5,4,,,45,,
{4} 7-3[4:1],3<7[4:1],
{16} E2,,E1,C,
{4} E5,2-6[4:1],6>2[4:1],
{16} E8,,E1,C,
{4} E5,7qq5[4:1],5<3[8:3],1>5[4:1],B4/B5,
{1} Cfh[1:1],
{4} ,,,
{16} 4h[4:1]/5,5,5,5,
{4} 5qq5[4:1],5<2[4:1],,3h[4:1],
{8} 6h[8:1],5h[8:1],4h[8:1],3,8h[4:1]/2-6[16:1],4,
{64} ,B2,Cf,B6,
{16} ,,,
{4} 4pp4[4:1]/5,4>7[4:1],,5h[8:3],2h[8:1],4h[8:1]/7h[8:1],
{8} 1-6[16:1]/2-6[16:1],8,
{64} ,B2,Cf,B6,
{16} ,,,
{4} 4pp4[4:1]/5,4>7[4:1],,5h[4:1],
{8} 2h[8:1],8h[8:1],3h[8:1],,1-5[16:1]/7-3[16:1],8,
{64} 1b/7b,B1/B7,Cf,B3/B5,
{16} ,,,
{8} 18,27,36,,47,
{16} 4>5[8:5],5,
{8} 36,Ch[8:3],
{4} ,,,
{16} 3-5[16:1]/6-1[16:1],,5,2,36,,8,,3-8[16:1]/6-4[16:1],,4,7,36,,1,,
3-5[16:1]/6-1[16:1],,5,,36,,8,,3-8[16:1]/6-4[16:1],,4,7,36,,1,,
3-5[16:1]/6-1[16:1],,5,2,
{4} 3x/6x,
{16} 3h[4:1]/6,,5,5,6h[4:1],4,,4,3h[4:1],5,5,,
{32} E8,B8,B1,E2,E4,B4,B5,E6,E1,B8,B7,E7,E3,B3,B4,E5,E8,B7,B6,E6,E2,B2,B3,E4,
{16} Cf,,2x/7x,2x/7x,2x/7x,,45,,3<5[16:1]/6<1[16:1],,5,2,36,,8,8,
3>8[16:1]/6>4[16:1],,4,7,36,,1,1,3<5[16:1]/6<1[16:1],,5,2,36,,8,8,
{8} 4/7s3[2:1],56,
{4} 4h[2:1]/7b,,,4z8[2:1],3h[2:1],,,45,
{2} E1,E2/E8,
{4} E3/E7/Cfh[1:1],,,,,,,4x/5x,
{16} 2>5[16:1]/6,,1,7,26,,8,,2>5[16:1]/6,,1,7,26,,8,,
7<4[16:1]/3,,8,2,37,,1,,7<4[16:1]/3,,8,2,37,,1,,
3h[4:1]/4,,5,6,7h[4:1],,8,1,2h[4:1],,1,8,7,,36,,6h[4:1]/5,,4,3,2h[4:1],,1,8,7h[4:1],,8,1,2,,4x/5x,,
{32} E4,B3,B2,E2,E8,B7,B6,E6,E3,B2,B1,E1,E7,B6,B5,E5,E2,B1,B8,E8,E6,B5,B4,E4,
{4} Cf,
{32} E6,B6,B7,E8,E2,B2,B3,E4,E7,B7,B8,E1,E3,B3,B4,E5,E8,B8,B1,E2,E4,B4,B5,E6,
{4} Cf,
{16} 2-5[16:1]/5,,3,4,2/7-4[16:1],,6,5,2-5[16:1]/7,,3,4,2/7-4[16:1],,6,5,
1-5[16:1]/7,,2,4,8-4[16:1]/1,,7,5,1-5[16:1]/8,,2,4,1/8<1[2:1],,7,5,
{4} 2h[2:1]/8,,,1s5[2:1],6h[2:1],,,4h[1:1],5h[16:31],,,,Ch[16:15],,,,,,,,,,,,,,,
E

Re:MASTER


  • 書式ミスが散見されましたので修正しておきました。 -- 嵐雅 (2022-01-23 16:57:00)
名前:
コメント:

タグ:

+ タグ編集
  • タグ:
最終更新:2026年04月09日 20:16