BASIC
ADVANCED
EXPERT
MASTER
(146)
{8}2b/7b,,4-1[8:1]/5-8[8:1],36,{4},6-1[8:1],4,
{8}5-2[8:1],5,,8,8,7,5h[8:1]/6h[4:1],,4,3h[4:1]/5,4h[4:1],,,
{16}B4/E4,B6/E6,B2/E2,B8/E8,B3/E3,B7/E7,C,E5,
{8}1,1v4[8:1]*q5[8:1],,1b,,
6-8[8:1],8v1[8:1],1-3[8:1],,{4}4-8[8:1],,
1-4[8:1]/7-2[8:1],17,2-7[8:1]/5q1[8:1],25,
2V48[4:1],{8}8-6[8:1],8,{4}1,37,
2x/B5,8x/B4/E4,1x/B6/E6/E7,7x/B2/B3/B4/Cf,
{16}1,,6,6,{8}5,8,3,2/4v7[8:1],1,1h[4:1],,
{16}8,8,{8}2,4,6V47[4:1],5,8,1,2,
{16}3,3,{8}4,1,6,5v2[8:1]/7,8,8h[4:1],,
{16}1,1,{8}7,5,3V52[4:1],4,1,8,7,
{16}6,6,{8}5,8,2,1v6[8:1]/7,8,8h[4:1],,
{16}4,4,{8}5,1,6V47[4:1],5,8,1,2,
{16}3,3,{8}4,1,{16}7,7,{8}8,1p2[4:1],4,
{4}5>1[8:1],,8xw4[8:1],8,
{8}5V31[8:1]/6v8[8:1],56,,,{16}8x,1x,,6,5,,37,,
{8}1V35[8:1]*V75[8:1],1,,,{16}E6,E4,E8,E2,{8}6>2[4:1],6,
{4}2<6[4:1],6,2,{8}4v1[8:1]*-2[8:1]/5,45,,,
1V73[4:1],1,3V15[4:1],4,5,,
6,{16}8,1,,6,{8}5,3p6[8:1],6v3[8:1],,,
7-2[8:1],7h[4:1],,,{16}5V31[8:1],5,6,7,8,,,,
{32}E7,B6,C,B2,{8}E3,{4}3x-6[8:1],8v5[4:1],5V37[4:1],
{8}2,2,1,1-4[8:1],4-1[8:1],6,8b,,1b,4-6[8:1],
B3/E3,4-8[8:1],B1/E2,4-6[8:1],B3/E3,4-8[8:1],B1/E2,4-6[8:1],
B3/E3,4-8[8:1],B1/E2,4-6[8:1],B3/E3,,1b,,
{24}2h[8:1]/E4,B4,B5,E6,,,3h[8:1]/E2,B1,B8,E8,,,
2h[8:1]/E4,B4,B5,E6,,,3h[8:1]/E2,B1,B8,E8,,,
2h[8:1]/E4,B4,B5,E6,,,3h[8:1]/E2,B1,B8,E8,,,
2h[8:1]/E4,B4,B5,E6,,,{8}1b,,
8h[8:1],E1,7h[8:1],E8,6h[8:1],E7,5h[8:1],E6,
4h[8:1],E5,3h[8:1],E4,2h[8:1],E3,1,78,57,24,
{16}1,8,1,8,1,1,1,1,{32}1,2,3,4,5,6,7,8,
{8}1,34,5-2[8:1]*-8[8:1],46,,,
1h[4:1],,4,6,{16}4,5,4,5,{8}4-8[8:1],3,
6,6,5,3/5-1[8:1],4,3hx[4:1],,8,
7,,B6/E6,B2/B3/E4,{16}8,1,8,1,7,2,8,,
{4}3/B5/E6,7/B4/E4,2/B5/E6,7<8[4:1]/B4/E4,Cf,
{8},2hx[4:1],,4,{4}5-8[8:1],1-4[8:1]/5,1/8x,
{8}7-2[8:1],3-6[8:1],7,3,8<1[4:1],,1x,1x,,4,
{4}5-7[8:1],5-2[8:1]/5-3[8:1],5w1[8:1],5,B4/B5/B6/Cf,
{16}1h[8:1],,8,8,,,37,,6,5,7,,3,4,2,,
{8}1V36[4:1],1,6-1[8:1],,4x,4x,5x,5x,
{16}6h[8:1],,1,1,,,25,,3,4,2,,6,5,7,,
{8}3pp6[8:3],3,1,1,8,8,7,6,
{16}3h[8:1]/5,,4,4,,,27,,7,5,6,,2,4,3,,
{8}6-1[8:1],6,5-2[8:1],5,7,7,
{2}4-1[8:1]/8-5[8:1],2^7[8:1]/6^3[8:1],1hx[2:1]/5hx[8:3],
{8},37,8-5[8:1],8,{4}4-8[8:1],4/7-4[8:1],27,
{16}3x^5[8:1],3x,3x,3x,{2}3x>6[4:1],{8}4-1[8:1],8b,4,8b,
{4}4/7-1[8:1],3-5[8:1]/7,3,{8}6<2[8:1],2<6[8:1],4,4,
3-7[8:1],4pp8[8:3],3,4,,,2b-6[8:1],,28,,7,
{16}6b,5b,,7b,8b,,2b,1b,,4pp2[16:9],{8}3h[4:1],,,,,1x,1x,,
{2}2-7[8:1]/6v7[8:1],{8}2/6-3[8:1],,3x,2x,
2-7[8:1],2hx[4:1],,,{16}6x,5x,4x-1[8:1],3x,2x,,,,
{8}8z4[8:3],8,4x,4x,3-7[8:1],3-1[8:1],,,
7,5,2,4,{16}5,E5,Chf[8:1],E1,,,,,
8xw4[8:1],,1x/7x,1x/7x,{8},,2s6[4:1],6,6z2[4:1],,,,
1x>5[8:1]*<5[8:1],2x/8x,1x,,3x/7x,,
5xV36[4:1],5,6-2[8:1],2-7[8:1],7-1[8:1],,,,
1^4[8:1]*^6[8:1],5,,,{32}5x,6x,7x,8x,1x,2x,3x,4x,{4}5x,
{24}2x/4x,3x/5x,4x/6x,{8}5hx[8:3]/7hx[8:3],,,
{24},4x/6x,3x/5x,{8}2x/4x,{4}2xq7[4:1],7p2[4:1],Ch[2:1],,8x,1/8^6[8:1],
{8}8-5[8:1],{32}1x,2x,3x,,{8}8-4[8:1],{32}1x,2x,3x,,
{8}8^6[8:1],{32}1x,2x,3x,,{8}8-5[8:1],{32}1x,2x,3x,,
{8}8-4[8:1],{32}1x,2x,3x,,{8}8^6[8:1],{32}1x,2x,3x,,
{8}8,{32}1x,2x,3x,,{4}8b,
{24}7h[8:1]/E6,B5,B4,E4,,,6h[8:1]/E8,B8,B1,E2,,,
7h[8:1]/E6,B5,B4,E4,,,6h[8:1]/E8,B8,B1,E2,,,
7h[8:1]/E6,B5,B4,E4,,,6h[8:1]/E8,B8,B1,E2,,,
7h[8:1]/E6,B5,B4,E4,,,{4}8b,
1x/B5/B6/Cf,8x/B3/B4/Cf,1x/B5/B6/Cf,7x/B3/B4/Cf,
2x/B5/B6/Cf,7x/B3/B4/Cf,2x/B5/B6/Cf,{8}1x/Cf,1x/Cf,1x/Cf,1x/Cf,
{16}8x,8x,8x,8x,8x,8x,8x,8x,{32}8,7,6,5,4,3,2,1,
{8}8,56,4V25[4:1]*V61[4:1],35,
{1} ,,,,
E
Re:MASTER
最終更新:2026年04月11日 21:06