BASIC
ADVANCED
EXPERT
MASTER
(190)
{8}1,1-5[8:7],,,,,,6,6-2[8:7],,,,,,,1,1-5[8:7],,,,,,,
8,8-4[8:7],,,,,,,3,3^6[8:7],,,,,,,8,8h[8:3],,,,,
6,5,4,3h[4:1],,,4,,3,4,5,{4}6,8,5,6,3,{8}5,5,,
{4}46,35,56,24,37,34,57,25,37,34,56,35,46,3,
{16}15,,2,3,4,,15,,2,3,4,,15,,2,3,4,,15,,2,3,4,,{8}15,2,4,6,
{16}48,,7,6,5,,48,,7,6,5,,48,,7,6,5,,48,,7,6,5,,{8}48,7,3b/5b,,
{4}2-7[8:1],8h[4:1],{8}6,5,4,3-8[8:1],,4,5h[4:1],,
8,1,2,3/6-1[8:1],,5,5h[4:1],,1,8,7,4-8[8:1]/6,,5,5,,1,1-5[8:1],,
6,,6,5,{4}4/7-2[8:1],4,3-7[8:1]/8,4,4/6-3[8:1],{8}1,8,7,,5,
{4}5<1[4:1],1>5[4:1],5<1[4:1],1>5[4:1],5,1,37,27,,
{16}3,,,4,,,5,,4,,4,,5,,5,,E4,E6,E3,E7,Cf,,,,
{8}8,,8,,6,5,46,3,6,3,46,5,6,5,46,3,
6,3,46,5,6,4,36,2,6,2,36,4,56,4,36,,
36,,36,4,56,4,36,2,6,2,36,4,6,4,63,5,
6,3,46,5,6,3,6,5,6,4,{4}46,45,36,
2-7[8:1],4,{8}3,4,5,6h[4:1],,8,1,2-6[8:1],,6,7,
8-4[8:1],,4,3,2-6[8:1],,6,7,8h[4:1],,4,37,6,15,2,36,,
7-2[8:1],,5,,6,5,4,3h[4:1],,1,8,7-3[8:1],,3,2,
1-5[8:1],,5,6,7-3[8:1],,3,2,1h[4:1],,5,26,3,48,7,3b/6b,,
{16}18,,,24,,,{8}5-1[8:1]/7,4,3,2,8h[4:1],,5,47,6,35,2,14,,
{16}18,,,57,,,{8}2/4-8[8:1],5,6,7,1h[4:1],,4,25,3,46,7,58,,
{16}18,,,24,,,{8}5-1[8:1]/7,3,4,2,8h[4:1],,5,47,6,35,2,14,,
{16}18,,,57,,,{8}2/4-8[8:1],6,5,7,{4}1h[4:1],4-8[8:1],2-6[8:1],{8}5,5,,
6,{16}6,5,7,,2,,4,5,3,,7,,2,4,1,,5,4,6,,1,,4,5,3,,6,,6,4,
8,,3,4,2,,6,,7,5,6,,3,,3,5,1,,6,5,7,,2,,5,4,6,,7,,3,4,
{1}2bV46[4:3],{4}2-6[4:1],,7x,1b/8b,
{12}6-1[8:1]/7,,4,6,,,2/3-8[8:1],,5,3,,,{4}67,45,
{12}2/3-8[8:1],,5,3,,,6-1[8:1]/7,,4,6,,,{8}23,4,56,7,
{4}1-5[8:1]/8,1/6^3[8:1],6/8-3[8:1],1-5[8:1]/8,
1/4-7[8:1],4/5^2[8:1],5/8-4[8:1],3-7[8:1]/8,
3/5-2[8:1],1^6[8:1]/5,1/4-1[8:1],4/8-5[8:1],3^6[8:1]/8,3,{8}8,8,1,2,
{4}3/4-1[8:1],4/5-8[8:1],56,7,5-8[8:1]/6,4-1[8:1]/5,34,{8}2,4,
{4}5^8[8:1],8,5^2[8:1],2,5^8[8:1],8,5,4b/6b,
{8}34,5,34,2,34,5,56,{16}7,5,{8}6,4,56,7,56,4,34,{16}2,4,
{8}3,5,34,2,34,5,56,{16}7,5,{8}6,4,56,7,56,4,34,{16}2,4,
{8}3,1,37,{16}6,5,{8}4,8,26,{16}3,4,{8}5,1,37,{16}6,5,{8}4,8,26,{16}3,4,
{12}5,,1,1-5[8:1],,5,5,,8,8-4[8:1],,4,4,,3,3-8[8:1],,8,8,,6,6-1[8:1],,1,
{1}1,{8},,,,,,,{1}6h[1:1],{8}5h[8:3],,,{4}4hx[4:1],3hx[4:1],5,26,,
{8}4,3>7[8:3],,5,{4},,5,3>7[8:3],6,,,{8},1b,{4},5,5,5,{8}4,4,6,6,3,3,5,,
{16}2,3,4,5,2,3,4,5,2,3,4,5,1,,1,,,,7,6,5,4,7,6,5,4,7,6,5,4,8,,,,
3,4,5,6,3,4,5,6,3,4,5,6,2,,,,6,5,4,3,6,5,4,3,6,5,4,3,7,,,,
1,2,3,4,1,2,3,4,1,2,3,4,8,,,,8,7,6,5,8,7,6,5,8,7,6,5,1,,,,
1-5[8:1],2,3,4,5,,,,8-4[8:1],7,6,5,{4}4,1-4[8:1],1/5-8[8:1],3^6[8:1]/5,
3/7b,{8}8,8,,6,4^1[8:1],7,5,,6,6-3[8:1],,
3,5^8[8:1],4,2,,3-7[8:1],5,4,,6-2[8:1],4,5,,3,3,,12,,56,,
37,{16}6,5,4,,37,,2,1,8,,37,,6,5,4,,37,,2,1,{8}8,37,37,46,35,
26,{16}3,4,5,,26,,7,8,1,,26,,3,4,5,,26,,7,8,{8}1,26,26,35,46,
7,7,5,{16}E5,E4,{8}E3,6^3[8:1],7,8,,2,4,{16}E5,E6,{8}E7,3^6[8:1],2,1,
,7,5,{16}E5,E4,{8}E3,6^3[8:1],7,8,,2,4,{16}E5,E6,{8}E7,3^6[8:1],2,
1,,7,5,{4}4-1[8:1]/6,4/7^2[8:1],3-7[8:1]/7,3/8-4[8:1],2-7[8:1]/8,
{8}26,5,4,,3,15,{16}2,3,{8}4,15,37,{16}6,5,
{8}4,37,26,{16}3,4,{8}5,26,48,{16}7,6,{2}5^8[8:1],
{16}12,,,34,,,{8}56,56,7,46,3,24,5,56,7,
{16}1,8,1,8,1,7,1,6,1-5[8:1],5,1,4,
{4}1>8[2:3],Cf,,,,,,5,4-1[8:1],4b,
{1},,,,,,
E
Re:MASTER
最終更新:2026年04月10日 20:31