アットウィキロゴ

絶え間なく藍色

アーティスト 獅子志司

BPM BASIC ADVANCED EXPERT MASTER Re:MASTER
125 3 6 8 13 -

EXPERT MASTER Re:MASTER
譜面制作者 はっぴー Jack -

BASIC


ADVANCED


EXPERT

(125)
{8}1,1,2/8,,
{16}7h[16:3],,,6h[16:3],,,
{8}5,,3,3/4,,
{4}6,5/7,3,2/4,
{16}5h[16:3],,,6h[16:3],,,
{8}7,,8,8,1,,3,4/5,,8,8,1/7,,
{16}2h[16:3],,,3h[16:3],,,
{8}4,,6,6,5,4,3,,2,
{16}2h[16:3],,,3h[16:3],,,4,,5h[16:3],,,6h[16:3],,,
{8}7,,8,8,1,1/8,,,,2h[4:1],,4,,5,5,4/6,,7h[4:1],,5,,4,4,3/5,,2h[4:1],,4,,5,5,4/6,,
{4}7h[4:1],5,4/6,4/6,
{8}3,3,4,,3/5,,4/7,,6,6,5,,
{4}4/6,2/5,1>4[4:1],,8h[4:1],
{8}1,1,,3/6,3/6,,
{2}4/5,6h[2:1],8h[2:1],1h[2:1],3h[2:1],
{4}4,4,4,4>5[2:1],,,,,
{8}6,6,4,4,7,7,5,5,6,6,3,3,5,5,4/6,,3,3,5,5,2,2,4,4,3,3,6,6,5/7,,
{4}2/4,1b/8bz4[4:3],,,,,,3x/6x,,
{8}7/8,7/8,1/6>3[4:1],,,,2,,1/2,1/2,8/3<6[4:1],,,,7,7h[4:1],,1,1,2/8,,3,3,2/4,,6,6-3[4:1],,,,,,1/2,1/2,8/3<6[4:1],,,,7,,7/8,7/8,1/6>3[4:1],,,,2,2h[4:1],,8,8,1/7,,6,6,5/7,,3,3,,
{4}2b/6b,,7h[2:1],B5,2h[2:1],B4,7h[2:1],B5,
{8}1,8,8,,
{4}2h[2:1],B4,7h[2:1],B5,2h[2:1],B4,
{8}8,1,1,,
{4}7h[2:1],E6,2h[2:1],E4,7h[2:1],E6,
{8}1,8,8,,2h[8:3],,,4h[8:3],,,
{4}5<4[4:3],{1},,
{1}6h[1:1],5h[1:1],4h[1:1],
{4}3,3,3<6[4:1],,,
{2}B4/E7,B5/E3,B4/E7,B5/E3,B4/E7,
{16}B5/E3,,,,6h[16:3],,,7h[16:3],,,8,,1h[16:3],,,2h[16:3],,,
{8}3,4/5,,2b/7b,,8,8,1,,7/8,7/8,1/6>3[4:1],,,,2,2,,,,
{4}B3/B7/Cf,,B2/B6/Cf,,B3/B7/Cf,
{8}1x,1x,,7/8,7/8,1/6>3[4:1],,,,2,,1/2,1/2,7/3-8[4:1],,,,6,6h[4:1],,5,5,4/6,,3,3,2/4,,6,6h[4:1],,
{4}5,4/7,8h[4:1],7h[4:1],6h[4:1],
{8}5,5,4h[4:1],,3h[4:1],,2h[4:1],,1,1,3/8,,
{4}2/5,1/6,4/7,3/8,2/5-8[4:1],,,1h[4:1],2h[4:1],3h[4:1],
{8}4,4,5h[4:1],,6h[4:1],,7h[4:1],,8,8,1/6,,
{4}4/7,3/8,2/5,1/6,7/4-1[4:1],,,6h[1:1],5,,5,3h[1:1],4,,4,6h[1:1],5,,5,4,C,
E

MASTER

(125)
{8}2-5[8:1]/8,1,1,,{16}7h[16:3],,,6h[16:3],,,{8}5-1[8:1],,4,4,,
{2}2^5[8:1]/8^5[8:1],1^4[8:1]*^6[8:1],
{16}5h[16:3],,,6h[16:3],,,{4}7-1[8:1],3-7[8:1],5-3[8:1],{8}2,2,,
1/7-4[8:1],8,8,,{16}2h[16:3],,,3h[16:3],,,{8}4-8[8:1],,5,5,,
{2}1^4[8:1]/7^4[8:1],{16}8h[16:3],,,7h[16:3],,,6,,
1h[16:3],,,2h[16:3],,,{8}3^6[8:1],,7,8,1,27,,,,
{4}4/6q4[4:1],3h[8:3],{16},,1,,,24,,,
{4}3p5[4:1]/4,6h[8:3],{16},,8,,,57,,,
{4}4/6q4[4:1],3h[8:3],{16},,1,,,24,,,57,,,36,,,45,,{2}1-4[8:1]/8-5[8:1],
{8}2h[8:1]/6,5,3/4h[8:1],2,1h[8:1]/5,6,3/7h[8:1],4,
5h[8:1]/6,7,4/8h[8:1],3,2h[8:1]/6,5,3/4h[8:1],2,
1h[8:1]/5,6,3/7h[8:1],4,5h[8:1]/6,7,58,4/8h[4:1],,1,27,36,{2}4-1[8:1]/5-8[8:1],
{4}2>7[2:1],C,7q1[2:1],C,1>6[2:1],C,6q8[2:1],C,
8>5[2:1],C,5q7[2:1],C,7^2[4:1],C,{8}4,45,27,,
4-8[8:1]/5,5,5,5,1-5[8:1]/6,6,6,6,7,37,47,57,6^3[8:1]/8,8,8,8,
1,16,15,14,2/3^6[8:1],2,2,2,3/8-4[8:1],3,3,3,
{4}4x/5^8[8:1],1^4[8:1]/5x,{1}1x/Chf[8:7],{8},24,3/5<4[4:1],46,5b/7,,,,
2/7-5[8:1],4,3-6[8:1]/7,2,3/8-4[8:1],7,2-5[8:1]/8,1,
2/7-3[8:1],8,1-4[8:1]/7,2,1/6^3[8:1],7,16,1hx[4:1],,
4^1[8:1],5,7hx[4:1],,5^8[8:1],4,3hx[4:1],,4,25,47,{2}1x^4[8:1]/5x^8[8:1],
{8}2/7-3[8:1],8,1-4[8:1]/7,2,1/6^3[8:1],7,16,2,
34,7,56,2-6[8:1],1,8-3[8:1]*-5[8:1],7,8x,,
2^5[8:1]/6^1[8:1],15,2x/6x,,3^8[8:1]/7^4[8:1],48,3x/7x,,27,38,16,
{2}4x^1[8:1]/8x^5[8:1],
{8}3h[4:1],,B3,,E3,E4,,3h[4:1],,E4,E3,,B3,2,24,,
6h[4:1],,B6,,E7,E6,,6h[4:1],,E6,E7,,B6,7,57,,
4h[4:1],,E5,,B5,B4,,5h[4:1],,B4,B5,,E5,36,36,,
3^6[8:1],,,7p2[8:1],,,1p8[8:7],,,,,,,,,Ch[8:9],{1},,,,,
{4}2,B2,3,B3,4,B4,5,B5,6,B6,7,{8}B7,
{24}1,8,1,{16}8,,,57,,,24,,{2}4^6[8:1]/5^3[8:1],
{8}2-6[8:1]/7,45,2b/7b-4[8:1],8,1-5[8:1]/7,2,1/6-2[8:1],7,
3-8[8:1]/6,4,3/5-1[8:1],6,3^6[8:1]/5,2,38,8b,,
3-8[8:1]/7-4[8:1],26,3x/7x,,2-5[8:1]/6-1[8:1],37,2x/6x,,
1^4[8:1]/8^5[8:1],36,1x/8x,,4x/5x,2x/7x,,
2/7-5[8:1],4,3-6[8:1]/7,2,3/8-4[8:1],7,2-5[8:1]/8,1,
2/7-3[8:1],8,1-4[8:1]/7,2,18,7pp4[8:3],46,3h[2:1]/7,,,,8b,,
2qq5[8:3]/6,37,2/6h[2:1],,,,1,{4}1-5[8:1]/8-4[8:1],Cf,
{8}2-5[8:1]/7,1,7-4[8:1],8,2-5[8:1],1,7-4[8:1],8,
2-5[8:1],1,7-4[8:1],8,3>6[4:1],3,5,5h[4:1],,
4,45,{16}3,24,,7,68,,2,13,,6,57,,3,
{32}24,5,6,7,8,1,2,3,4,5,{24}1,8,1,8,1,8,1,8,1,8,1,8,
{8}2-5[8:1]/7,6,2/7p3[8:1],8,2-5[8:1]/7,1,2/8-4[8:1],6,
2-5[8:1]/8,1,2/7p3[8:1],8,2-5[8:1]/7,1,2/8-4[8:1],6,
2q6[8:1]/8,1,2/7-4[8:1],8,1-5[8:1]/7,3,1/7-4[8:1],8,
2q6[8:1]/7,1,2/7-4[8:1],8,1-5[8:1]/7,3,1b/5b,,
3/7h[4:1],,5,2h[4:1]/6,,3,2,3/7h[4:1],,6,7,3h[4:1]/5,,4,3,
4/6h[4:1],,5,6,3h[4:1]/5,,4,3,5h[4:1],,B4,B5,Cf,
{1},,,,
E

Re:MASTER


名前:
コメント:

タグ:

+ タグ編集
  • タグ:
最終更新:2026年07月18日 07:14