EASY
BASIC
(222.0){1},
{2}1,1,
{1}1,
{2}2,2,
{1}2,
{2}3,3,
{1}3,
{2}4,4,
{1}4/5,
{2}5,5,
{1}5,
{2}6,6,
{1}6,
{2}7,7,
{1}7,
{2}8,8,
{1}1/8,
{1}1h[1:1],,
{1}8h[1:1],,
{1}7h[1:1],,
{2}6,6,
{1}5/6,
{1}5h[1:1],,
{1}4h[1:1],,
{1}3h[1:1],,
{2}2,2,
{1}1/2,
{1}1/8,,
{2}2,2,
{1}2,
{2}3,3,
{1}3,
{2}4/5,4/5,
{1}4/5,
{2}5,5,
{1}5,
{2}6,6,
{1}6,
{2}7,7,
{1}7,
{2}1/8,1/8,
{1}1/8,
{1}1-5[4:7],,,,
{1}8-4[4:7],,,,
{1}1h[1:1]/2h[1:1],,
{1}7h[1:1]/8h[1:1],,
{1}1h[1:1]/8h[1:1],,
{2}1/8,1/8,
{2}1b/8b,(204.0),
(222.0){1}2h[1:1],,
{1}3h[1:1],,
{1}4h[1:1],,
{2}4/5,4/5,
{1}4/5,
{1}5h[1:1],,
{1}6h[1:1],,
{1}7h[1:1],,
{2}1/8,1/8,
{1}1/8,
{2}2,2,
{2}1,1,
{2}8,8,
{1}1/8,
{2}7,7,
{2}6,6,
{2}5,5,
{1}4/5,
{2}3,3,
{2}4,4,
{2}5,5,
{1}4/5,
{2}6,6,
{2}7,7,
{2}8,8,
{1}1/8,
{1}2-6[4:7],,,,
{1}7-3[4:7],,,,
{2}8,8,
{1}8,
{2}7,7,
{1}7,
{2}6,6,
{1}6,
{2}5,4,
{1}4/5,
{2}4,4,
{1}4,
{2}3,3,
{1}3,
{2}2,2,
{1}2,
{2}1,8,
{1}1/8,
{1}1-4[4:7],,,
E
ADVANCED
(222.0){1},
{2}3,3/4,
{2}3,2/4,
{2}6,5/6,
{4}6,6,6,,
{2}3,3/4,
{2}3,2/4,
{2}5,6-3[4:3],{1},
{2}2,1/2,
{2}2,1/3,
{2}7,7/8,
{4}7,7,7,,
{2}2,1/2,
{2}2,1/3,
{2}8,7^4[4:3],{1},
{4}3,3,4,,
{2}2/5,3/4,
{4}6,6,5,,
{2}4/7,5/6,
{4}7,7,8,,
{2}1/6,7/8,
{4}2,2,1,,
{2}3/8,1/2,
{4}3,3,4,4,
{2}2/5,3/4,
{4}6,6,5,5,
{2}4/7,5/6,
{4}7,7,8,8,
{2}1/6,7/8,
{4}2,2,1,1,
{1}3h[2:1]/8h[2:1],
{1}2h[2:3]/7h[2:3],,
{2}3,3/4,
{4}2,2,1/3,,
{2}6,5/6,
{4}7,7,6/8,,
{2}3/4,5/6,
{1}4h[2:1]/5h[2:1],
{2}3,1/2,
{4}3,3,2/4,,
{2}6,7/8,
{4}6,6,5/7,,
{2}2,3/4,
{4}2,2,1/3,,
{2}7,5-2[4:3]/6-1[4:3],{1},
{2}2h[2:1],3,
{2}7h[2:1],6,
{2}3h[2:1],4,
{2}6h[2:1],5,
{2}4h[2:1],5,
{2}5h[2:1],4,
{1}4h[2:1],
{1}5h[2:1],
{2}4,3/4,
{2}5,5/6,
{2}4,2/3,
{2}5,6/7,
{2}4/5,1/2,
{2}4/5,7/8,
{1}4-1[4:3]/5-8[4:3],
{2},(204.0)2b/7b,
(222.0){1}4h[2:1],
{1}5h[2:1],
{1}4h[2:1],
{2}5,4/5,
{1}3h[2:1],
{1}6h[2:1],
{1}3h[2:1],
{2}4/5,4/5,
{2}6h[2:1],5,
{2}3h[2:1],4,
{2}6h[2:1],5,
{4}3,3,3/4,,
{2}6h[2:1],5h[2:1],
{2}4h[2:1],3,
{2}3h[2:1],4h[2:1],
{2}5h[2:1],6,
{2}6h[2:1],5,
{4}6,6,5/7,,
{2}3h[2:1],4,
{4}3,3,2/4,,
{2}6h[2:1],5,
{4}6,6,5/7,,
{2}3h[2:1],2h[2:1],
{2}1h[2:1],8,
{2}2h[2:1],1,
{4}2,2,1/3,,
{2}7h[2:1],8,
{4}7,7,6/8,,
{2}2h[2:1],1,
{4}2,2,1/3,,
{1}1^4[4:3]/8^5[4:3],
{2},3/6,
{2}2h[2:1],1,
{4}8,7,1/6,,
{4}2,2,1,1,
{2}3/8,2b/7b,
{2}7h[2:1],8,
{4}1,2,3/8,,
{4}7,7,8,8,
{2}1/6,2b/7b,
{1}4/3h[2:3],
{4},4,4,,
{1}5/6h[2:3],
{4},5,5,,
{1}4/3h[2:3],
{4},4,4,,
{1}5/6h[1:1],
{2}5,4/7,
{1}5/4h[2:3],
{4},5,5,,
{1}4/5h[2:3],
{4},4,4,,
{1}4h[4:3],
{4},4,4,,
{1}5h[4:3],
{4},5,5,,
{1}3^6[4:3],,
E
EXPERT
(222.0){1},
{4}4,3,5,6,
{4}4,3/4,5,5/6,
{4}2,1,7,8,
{4}1/2,3/8,,4h[4:1],
{4}5,6,4,3,
{4}5,5/6,4,3/4,
{4}7h[4:1],8,2h[4:1],1s5[8:5],{1},
{4}4,2,5,7,
{4}4,2/4,5,5/7,
{4}3,1,6,8,
{4}1/2,3/8,,4h[4:1],
{4}5,7,4,2,
{4}5,5/7,4,2/4,
{4}6h[4:1],8,3h[4:1],1,
{1}1^4[16:7]/8^5[16:7],
{4}2b/7b,,6,5/6,
{4}3,2/4,7/8,1/6,
{4}2,1/2,7,7/8,
{4}2,1/3,5/6,4/7,
{4}6,5/6,3,3/4,
{4}6,5/7,1/2,3/8,
{4}7,7/8,2,1/2,
{4}7,6/8,3/4,2/5,
{4}3,2/4,6,5/7,
{4}3,3/4,7/8,1/6,
{4}2,1/3,7,6/8,
{4}2,1/2,5/6,4/7,
{4}6,5/7,3,2/4,
{4}6,5/6,1/2,3/8,
{4}7,6/8,2,1/3,
{4}7,7/8,3/4,2/5,
{1}6/1>8[1:1],
{4},,,1/8,
{4}4,2,5,7,
{1}5q2[2:1]/6^1[2:1],
{4}4,2,5,7,
{4}3,2/4,6,5/7,
{1}4qq2[2:1]/5pp7[2:1],
{2}3h[4:1]/6h[4:1],1b/8b,
{4}8,6,1,3,
{4}7,6/8,2,1/3,
{4}7,5,2,4,
{1}3V17[2:1]/4v6[2:1],
{4}2,4,7,5,
{4}3,4/8,6,1/5,
{4}2h[4:1],4,7h[4:1],5,
{6}4,5,4,5,3b/6b,,
{2}2h[2:1],3h[2:1],
{2}4h[2:1],5,
{1}1-4[8:3]/6-3[8:3],
{1}1-4[8:3]/6-3[8:3],
{2}7h[2:1],6h[2:1],
{2}5h[2:1],4b,
{1}3-6[8:3]/7-2[8:3],
{1}3-6[8:3]/7-2[8:3],
{4}5,5h[2:1],6,6h[2:1],
{4}7,7h[2:1],8,8h[2:1],
{4}1,1h[2:1],2,2h[2:1],
{4}3,3h[2:1],4,4h[4:1],
{4}5h[4:1],6h[4:1],7h[4:1],8h[4:1],
{4}1h[4:1],2h[4:1],3h[4:1],4h[4:1],
{4}5h[4:1],7h[4:1],1h[4:1],3h[4:1],
{4}5h[4:1],7,(204.0)1b/8b,,
(222.0){2}2^5[16:9],6,
{2}6q2[16:9],3,
{2}3p7[16:9],6,
{2}6qq7[16:15],2,
{2}1V38[8:9],4-7[8:5],{1},
{2}3-8[8:3],5-8[8:3],
{1}4qq8[8:7],
{2}7^4[16:9],3,
{2}3p7[16:9],6,
{2}6q2[16:9],3,
{2}3pp2[16:15],7,
{2}8V61[8:9],5-2[8:5],{1},
{2}3^8[8:3],4pp8[8:7]*qq8[8:7],{1},
{4}3/6h[2:1],4,5,,
{1}5h[2:1]/6-8[8:3],
{4}6/3h[2:1],5,4,,
{1}4h[2:1]/3-1[8:3],
{1}3h[2:1]/4-1[8:3],
{1}6h[2:1]/5-8[8:3],
{1}3h[2:1]/4pp4[8:7],
{2}3,2/5,
{4}2/6h[2:1],3,5,,
{1}5h[2:1]/6-1[2:1],
{4}7/3h[2:1],6,4,,
{1}4h[2:1]/3-8[2:1],
{1}5h[2:1]/4qq4[8:5],
{1}5qq3[2:1]*pp7[2:1],
{2}5/4-1[2:1],8,
{4}1,2/8,3/7,,
{2}4/3-8[8:3],5,
{2}4/3V17[2:1],6,
{2}4/3-8[8:3],5,
{2}4/3V17[2:1],6,
{2}5/6-1[8:3],4,
{2}5/6V82[2:1],3,
{2}5/6-1[8:3],4,
{2}5/6V82[2:1],3,
{8}2h[8:3],,,1,,,8/3h[2:1],,
{4},4,3/4,,
{8}7h[8:3],,,8,,,1/6h[2:1],,
{4},5,5/6,,
{8}1h[8:3],,,8,,,7/2h[2:1],,
{4},4,2/4,,
{8}8h[8:3],,,1,,,{4}2/7pp4[4:3],{1},
{8}3h[8:3],,,4,,,5/2h[2:1],,
{4},4,2/4,,
{8}6h[8:3],,,5,,,4/7h[2:1],,
{4},5,5/7,,
{8}3h[8:3],,,4,,,2/5h[2:1],,
{4},4,4/5,,
{8}6h[8:3],,,5,,,7/4h[2:1],,
{4},5,4h[2:1]/5h[2:1],,,
E
MASTER
(222)
{8}5h[4:3],,4,4,,3,3,,4h[4:3],,5,5,,6,6,,
7h[4:3],,5,5,,6,6,,2h[4:3],,4,4,,3,3,,
6h[4:3],,7,7,,8,8,,3h[4:3],,2,2,,1,1,,
8h[4:3],,6,6,,5,5,,{16}1,,,2,,,3,,{2}4h[4:1]/8h[4:1],
{8}2,,2,2-6[8:1],,8,8-4[8:1],,1,,1,1-5[8:1],,7,7-3[8:1],,
2,,2,2^5[8:1],,8,8-4[8:1],,1,,1,1-5[8:1],,6,6,,
7,,7,7-3[8:1],,1,1-5[8:1],,8,,8,8-4[8:1],,2,2-6[8:1],,
7,,7,7^4[8:1],,1,1-5[8:1],,{6}7,6,5,48,37,26,
{8}1b/5b,,2h[4:1]/8,8,8,,56,,3h[4:1]/4,4,4,,25,,56,,
48,,1/7h[4:1],1,1,,34,,5/6h[4:1],5,5,,47,,34,,
48,,3h[4:1]/5,5,5,,78,,1/2h[4:1],1,1,,38,,78,,
15,,4/6h[4:1],4,4,,12,,7h[4:1]/8,8,8,,16,,12,,
47,,28,1,8,1,28,,57,6,5,6,57,,25,,
13,,17,8,1,8,17,,24,3,4,3,24,,47,,
57,,35,4,5,4,35,,68,7,8,7,68,,38,,
24,,46,5,4,5,46,,13,2,1,2,13,,45,,
{4}1b/8b,,,,,,{16},,4,5,36,,,,
{8}2-5[8:1],,2,1,,7,8,7,1,8-5[8:1],1,8,,3,4,3,
2-5[8:1],,2,1,,6,5,4,7,8-4[8:1],7,8,,6,6,,
45,,24,24,,57,57,,{2}2-5[8:1]/6-1[8:1],3b/7b,
{8}8-4[8:1],,8,1,,5,6,7,8,2-5[8:1],8,2,,1,1,,
7-4[8:1],,7,8,,2,1,2,8,1-4[8:1],8,1,,6,5,6,
7-4[8:1],,7,8,,3,4,5,2,1-5[8:1],2,1,,3,3,,
45,,57,57,,24,24,,{6}15,26,37,48,1h[3:1]/5h[3:1],,
{2},28,{8}24,,,35,35,35,,,{6}1h[6:1],2h[6:1],3h[6:1],4h[6:1],5h[6:1],
{12}8,1,{6}8h[6:1],7h[6:1],6h[6:1],5h[6:1],4h[3:1],,
{2}1,28,{8}68,,,57,57,57,,,{6}1h[6:1],3h[6:1],4h[6:1],5h[6:1],7h[6:1],
{12}8,1,{6}8h[6:1],6h[6:1],5h[6:1],4h[6:1],2h[3:1],,
{12}3,4,3,6,5,6,3,4,3,6,5,6,3,4,3,6,5,6,3,4,3,6,5,6,,,
2,1,2,7,8,7,2,1,2,7,8,7,2,1,2,7,8,7,2,1,2,7,,,
3,4,2,6,5,7,2,1,3,7,8,6,3,4,1,6,5,8,2,1,3,7,{24},
{4}1-5[8:1],1b/7b-4[8:1],2b-5[8:1]/7b,2b/8b-4[8:1],
1b-5[8:1]/8b,1b^4[8:1]/8b^5[8:1],1b/8b,,
{2}3h[2:1]/5,1h[2:1],{4}4^1[2:1],5,6,,
{2}4/6h[2:1],8h[2:1],{4}5^8[2:1],4,3,,
3qq5[4:5]/6pp4[4:5],,,,,,,3,34,
{8},7,7p3[8:3],,,2,2q6[8:3],,,7,7,,,,
{2}2h[2:1]/4,8h[2:1],{4}6>2[2:1],7,8,,
{2}5/7h[2:1],1h[2:1],{4}3<7[2:1],2,1,,
2pp8[4:5]/7qq1[4:5],,,,,,,6,56,
{8},2,2q6[8:3],,,7,7p3[8:3],,,2,2,,,,
,,4,4,{4}5,6^3[4:1],3pp6[4:3],,2,1,
{8},,5,5,{4}4,3^6[4:1],6qq3[4:3],,7,8,
,5,{8}3,4,3,4,3,3,,6,5,47,,1,
{4}1s5[2:1]/8,6,5s1[2:1],7,8,{8},5,4,36,,,
,,2,2,3,,2,2,{4}2>7[2:1],8,7<2[2:1],8,,
{8}7,7,6,,7,7,{4}7<2[2:1],1,2>7[2:1],1,,1,
{8}6,5,6,5,6,,34,34,{4},4,{2}4q2[2:1],2>6[2:1],6<2[2:1],5,
{8}6<3[2:1],,,3,,,{4}5,3>6[2:1]/4,6,5,4,
{8}5/6<3[2:1],,,3,,,{4}5,3>6[2:1]/6,5,4,,
{8}5/6<3[2:1],,,3,,,{4}5,3>6[2:1]/4,6,5,4,
{8}5/6<3[2:1],,,3,,,{4}5,36,5,45,,
{8}3h[4:1]/4h[4:1],,,4h[4:1]/5h[4:1],,,5h[4:1]/6h[4:1],,,,47,,47,,,,
5h[4:1]/6h[4:1],,,4h[4:1]/5h[4:1],,,3h[4:1]/4h[4:1],,,,25,,25,,,,
1h[4:1]/8h[4:1],,,2h[4:1]/3h[4:1],,,4h[4:1]/5h[4:1],,,,37,,37,,,,
1h[4:1]/8h[4:1],,,6h[4:1]/7h[4:1],,,4h[4:1]/5h[4:1],,,,26,,26,,,,
4h[8:3],,,7h[8:5],,,1h[4:1],,,,37,,37,,,,
5h[8:3],,,2h[8:5],,,8h[4:1],,,,26,,26,,,,
2h[8:3],,,6h[8:5],,,5h[4:1],,,,47,,47,,,,
7h[8:3],,,3h[8:5],,,4h[4:1],,,,25,,25,,,,
{1}3-6[4:7],,,,,,
E
Re:MASTER
最終更新:2026年10月03日 22:13