アットウィキロゴ

アンハッピーリフレイン

アーティスト wowaka

BPM EASY BASIC ADVANCED EXPERT MASTER Re:MASTER
205 3 5 9 11+ 13 -

EXPERT MASTER Re:MASTER
譜面制作者 ロシェ@ペンギン はっぴー -

EASY


BASIC

(205.0){1},,,,
{8},,,,,,,6,{1},
{8},,,,,,,5,{1},
{8},,,,,,,4,{1},
{8},,,,,,,3,{1},,
{1}2h[1:2],,,,
{1}7h[1:2],,,,
{1}5,
{1}5,
{1}4,
{1}4,
{2}6,6,
{1}6,
{2}3,3,
{1}3b,
{2}2,2,
{1}1/2,
{2}3,3,
{1}3/4,
{2}6,6,
{1}5/6,
{2}7,7,
{1}7/8,
{2}8,8,
{2}8,7/8,
{2}1,1,
{2}1,1/2,
{1}3,
{1}4,
{1}5,
{1}6,
{2}7,7,
{4}7,7,7,,
{2}8,8,
{4}8,8,8,,
{2}1,1,
{4}1,1,1,,
{2}2,2,
{4}2,2,2,,
{2}3,4,
{2}3,4,
{2}5,6,
{2}5,6,
{1}3/4,
{1}1/2,
{1}7/8,
{1}5/6,
{1}8-5[4:3],,
{2}4,3,
{4}2,2,2,,
{1}1-4[4:3],,
{2}5,6,
{4}7,7,7,,
{1}6-3[4:3],,
{2}4,3,
{4}2,2,2,,
{4}1,1,1,,
{4}8,8,8,,
{2}1/8,1/8,
{4}1/8,1/8,1/8,,
{2}8,8,
{4}7,7,7,,
{4}6,6,6,,
{4}5,5,5,,
{2}4,4,
{4}3,3,3,,
{4}2,2,2,,
{4}1,1,1,,
{2}7/8,7/8,
{4}6,6,6,,
{4}7,7,7,,
{4}8,8,8,,
{2}1/2,1/2,
{4}3,3,3,,
{4}2,2,2,,
{4}1,1,1,,
{1}1/8,
{1}2/7,
{1}3/6,
{1}4/5,
{1}4b/5b,
E

ADVANCED

(205.0){1},,,,
{8},,,,,,,6,
{8},,,,,,,5,
{8},,,,,,,4,
{8},,,,,,,3,
{8},,,,,,,1/2,
{8},,,,,,,7/8,
{8},,,,,,,5/6,
{8},,,,,,,3/4,{1},
{1}3h[2:7]/6h[2:7],,,,
{4}4,4,,,
{4}5,5,,,
{4}3,3,,,
{4}6,6,,,
{4}2,2,2,,
{4}7,7,7,,
{4}1,1,1,,
{4}8,8,8,,
{4}1,1,2,2,
{4}3,3,3/4,,
{4}8,8,7,7,
{4}6,6,5b/6b,,
{4}1,1,2,,
{4}8,8,7,,
{4}4,4,3,,
{4}5,5,6,,
{4}2,2,1/3,,
{4}7,7,6/8,,
{4}3,3,2/4,,
{4}6,6,5/7,,
{4}2,3,3,4,
{4}3,3,2/4,,
{4}7,6,6,5,
{4}6,6,5/7,,
{2}1h[2:1],8h[2:1],
{2}2h[2:1],7h[2:1],
{2}3h[2:1],6h[2:1],
{2}4h[2:1],5b,
{4}4,4,3,3,
{4}2,2,1,,
{4}5,5,6,6,
{4}7,7,8,,
{4}4/5,4/5,3/6,3/6,
{4}2/7,2/7,1/8,,
{4}1/8,1/8,2/7,2/7,
{4}3/6,3/6,4/5,,
{4}1/2,2,2,1/2,
{4}1,1,2/8,,
{4}7/8,7,7,7/8,
{4}8,8,1/7,,
{2}3h[2:1],4h[2:1],
{2}5h[2:1],6,
{2}2h[2:1],1h[2:1],
{2}8h[2:1],7b,
{2}8,6,
{2}4,2,
{1}1-4[2:1],
{1}8-5[2:1],
{2}1,3,
{2}5,7,
{1}8p4[2:1],
{1}1q5[2:1],
{2}7,6/8,
{2}2,1/3,
{1}1q6[2:1],
{1}8p3[2:1],
{4}2,2,2,1/3,
{4}7,7,7,6/8,
{4}1/8,2/7,3/6,4/5,
{4}3/4,4/5,5b/6b,,
{2}1/2,7/8,
{4}2,7,1/8,,
{4}2,3,4,5,
{4}6,7,1/8,2/7,
{2}5/6,3/4,
{4}5,3/6,3/6,,
{4}7,8,7,1/6,
{4}2,1,2,3/8,
{2}1/2,7/8,
{4}1/2,1/8,7/8,,
{4}6,5/6,6,5/6,
{4}3,3/4,3,3/4,
{2}2/3,6/7,
{4}1/8,1/8,6/7,,
{4}4/5,4/5,4/5,2/3,
{4}1/8,6/7,4b/5b,,
{4}6,5,4/6,,
{4}3,4,3/5,,
{4}7,7/8,1/6,,
{4}2,1/2,3/8,,
{4}1s5[1:1],{1},,
E

EXPERT

(205.0){1},,,,
{8},,,,,,,4/5,
{8},3/6,3/6,,3/6,3/6,,2/7,
{8},3/6,3/6,,3/6,3/6,,1/8,
{8},3/6,3/6,,3/6,3/6,,4/5,
{8},3/6,3/6,,3/6,3/6,,1/3,
{8},3/6,3/6,,3/6,3/6,,6/8,
{8},3/6,3/6,,3/6,3/6,,1/2,
{8},3/6,3/6,,3/6,3/6,,7/8,
{8},3/6,3/6,,3/6,3/6,,,
{1}4-1[2:3]/5-8[2:3],,
{4}5/4-1[4:3],5,5,5,
{4}6,6,6,6,
{4}3/4<8[4:3],3,3,3,
{4}2,2,2,2,
{4}6/5>1[4:3],6,6,6,
{8}7,,7,,6,3,6,3,
{8}7,7,,4,4,4,,5,
{8}5,5,,2,2,2,,6,
{8}6,6,,1,1,1,,8,
{8}8,8,,3,3,3,,7,
{8}8,7,,1,1,1,,2,
{8}1,2,,8,8,8,,,
{2}7-2[8:1],3-6[8:1],
{4}2/7,1^4[4:1]/8^5[4:1],,,
{4}8,6,4,2,
{4}8h[4:3],7^4[4:1],,,
{4}2h[4:1],7h[4:1],3h[4:1],6h[4:1],
{4}1h[2:1],6-3[8:1],,,
{4}1,3,5,7,
{4}2^5[8:1],6^1[8:1],,,
{4}6h[4:1],1h[4:1],3h[4:1],7h[4:1],
{4}8h[4:1],1^4[4:1],,,
{8}5,4,4,5,3,3,5,2,
{8}2,5,1,1,8-4[8:1],,,,
{8}1,8,8,1,7,7,1,6,
{8}6,1,5,5,4-8[8:1],,,,
{4}7h[4:1],8h[4:1],1h[4:1],2h[4:1],
{4}8,1,8,1/8,
{4}2/3,4/5,6/7,1/8,
{4}3/7,2-7[4:1]/6-3[4:1],,,
{2}1-4[8:1],5-8[8:1],
{4}1h[4:1],6,1/2,3/4,
{4}2h[4:1],6h[4:1],8h[4:1],4h[4:1],
{1}1q4[2:1],
{4}5/6,5/6,1/2,1/2,
{4}1/8,2-6[8:1]/7-3[8:1],,,
{4}1/4,2/7,5/8,3/6,
{4}2/7,4-1[4:1]/5-8[4:1],,,
{8}4,5,5,4,6,6,4,7,
{8}7,4,8,8,1-6[8:1],,,,
{8}8,1,1,8,2,2,8,3,
{8}3,8,4,4,5-2[8:1],,,,
{8}1,8,2,7,3,6,4,5h[8:5],
{4},8z4[4:1],,,
{4}2,1/2,7,7/8,
{4}6h[4:3],4,3h[4:1],,
{8}7-2[8:1],,,3-6[8:1],,,7,,
{8}1b/2b,,,1b/2b,,,2,1,
{8}2,,1,8,1,,8,7,
{8}8,,7,2,7,,8,,
{8}2-7[8:1],,,6-3[8:1],,,2,,
{8}7b/8b,,,7b/8b,,,6,5,
{8}6,,5,4,5,,4,3,
{8}4,3,4,3,6,3,6,3,
{8}5-8[8:1],,,1-4[8:1],,,5,,
{8}1b/8b,,,1b/8b,,,7,8,
{8}7,,8,1,8,,2,1,
{8}2,,1,8,1h[2:1],,5,,
{4}5h[2:1],7,7h[2:1],4,
{4}4h[2:1],2,2h[4:1],8,
{8}4/5,,4/5,,3/6,3/6,,3/6,
{8},2/7,2/7,2/7,1b/8b,,,,
{4}1,4/7,8,2/5,
{4}4/5,1/8,1b/8b,,
{8}1,8,2,7,3,6,4,5h[8:5],
{8},8,8-4[4:1],,,,,,
{4}4,1/6,5,3/8,
{4}7/8,1/2,1b/8b,,
{8}6,5,7,4,8,3,1,2h[8:5],
{8},8,8-4[8:1],,,,,,
{4}2,5/6,7,3/4,
{4}6/7,2/3,1b/8b,,
{8}3,4,2,5,1,6,8,7h[8:5],
{8},1,1-4[8:1],,,,,3/4,
{8}3/4,3/4,,5/6,5/6,5/6,,2/7,
{8}2/7,2/7,2/7,,1b/8b,,,,
{8}2,1,3,8,4,7,5,6h[8:5],
{8},4,4-8[4:1],,,,,,
{1}6-2[2:1]/7-3[2:1],
{1}1-5[2:1]/8-4[2:1],
{1}4-8[2:1]/5-1[2:1],
{1}2-6[2:1]/3-7[2:1],
{8}1p3[8:13]/8q6[8:13],,,,,,,{1},,
E

MASTER

(205)
{8}27,,46,46,,35,35,,27,,35,35,,46,46,,
27,,68,68,,13,13,,27,,68,68,,13,13,,
27,,46,46,,35,35,,27,,35,35,,46,46,,
27,,18,27,,45,36,,27,,18,36,,45,2b/7b,,,
8,8,,2-5[8:1],1,2,,7-4[8:1],8,7,,2-5[8:1],1,2,,
7-3[8:1],8,7,,2-6[8:1],1,2,,7-3[8:1],8,7,,2-6[8:1],1,2,,
7-4[8:1],8,7,,3-8[8:1],4,3,,7-4[8:1],8,7,,3-8[8:1],4,3,,
6-1[8:1],5,6,,2-5[8:1],1,2,,6-1[8:1],5,6,,2<5[4:1],1,2,,,
3h[4:1],,2,3,4,5,6,5h[4:1],,6,7,6,5,4,3,
4h[4:1],,3,2,3,4,5,6,5h[4:1],,6,7,6,5,4,3,
4h[4:1],,2,3,2,1,8,7,8h[4:1],,7,6,7,1,2,1,,
{4}7-5[8:1]/8-4[8:1],,1-5[8:1]/2-4[8:1],,7-4[8:1],2-5[8:1],1b,2b/7b,
38,16,{8}7,5,4,2h[4:1],,1,2,3,2^5[8:1],,,,
7,6,5,2,3,4,8,7-3[8:1],,1,1-5[8:1],,8,,18,,
16,,38,,2,4,5,7h[4:1],,8,7,6,7^4[8:1],,,,
2,3,4,7,6,5,1,2-6[8:1],,8,8-4[8:1],,1,,18,,
2-5[8:1],5,2,7-4[8:1],4,7,1-6[8:1],6,1,8-3[8:1],3,8,2-6[8:1],,12,,
7-4[8:1],4,7,2-5[8:1],5,2,8-3[8:1],3,8,1-6[8:1],6,1,7-3[8:1],,78,,
25,{16}3,4,3,,6,5,{8}6,3,27,45,,36,1^4[8:1]/8^5[8:1],,18,,
6,5,4,3,3^6[8:1],3,,7,7-2[8:1],7,,3,3-6[8:1],3,,,,,
38,,16,,7,5,4,2h[4:1],,1,2,3,2^5[8:1],,,,
7,6,5,2,3,4,8,7-3[8:1],,1,1-5[8:1],,8,,45,,
16,,38,,2,4,5,7h[4:1],,8,7,6,7^4[8:1],,,,
2,3,4,7,6,5,1,2-6[8:1],,8,8-4[8:1],,1,,45,,
8-3[8:1],3,8,2-5[8:1],5,2,7-4[8:1],4,7,1-6[8:1],6,1,8-4[8:1],,18,,
1-6[8:1],6,1,7-4[8:1],4,7,2-5[8:1],5,2,8-3[8:1],3,8,1-5[8:1],,18,,
47,{16}6,5,6,,3,4,{8}3,6,27,45,,1s5[8:1]/8,18,,,,
3,4,5,6,6^3[8:1],6,,2,2q7[8:1],2,,8,8,1,2b/7b,,{16}4,5,4,5,
{8}36,,2,13,,8,7,6,57,,3,2b/4b,,,
7^2[8:1],8,7,,3p7[8:1],4,3,,6^3[8:1],5,6,,1^6[8:1],1,1^3[8:1],,,,
27,,7,68,,1,2,3,24,,6,5b/7b,,,
2^7[8:1],1,2,,6q2[8:1],5,6,,3^6[8:1],4,3,,8,1,3,1,8,6,
27,,2,13,,8,7,6,57,,3,2b/4b,,,
7^4[8:1],8,7,,2^5[8:1],1,2,,6-1[8:1],5,6,,3-8[8:1],4,3,,
{2}6-1[8:1]/7-4[8:1],2-5[8:1]/3-8[8:1],6-1[8:1]/7-4[8:1],2-5[8:1]/3-8[8:1],
{4}1-6[8:1]/8-3[8:1],18,45,{8}27,27,,45,,36,18,45,2b/7b,,45,,
7-3[8:1],7,,1,2-6[8:1],2,,8,1,8,1,,2b/7b,,1,2,3,
{16}6,5,6,,3,4,3,,{4}2^5[4:1]/5,5^8[4:1],8^3[4:1],{8}4,4,,47,1,
2-6[8:1],2,,8,7-3[8:1],7,,1,8,1,8,,{2}2^7[8:1]/7b,
{16}6,,3,4,3,,6,5,{8}6,47,,25,,36,4^7[8:1]/5^2[8:1],,,,
{2}1-3[8:1]/7-3[8:1],2-6[8:1]/8-6[8:1],
{4}1-3[8:1]/7-3[8:1],1v4[8:1]/7v4[8:1],1-5[8:1]/7-5[8:1],,{8}3,3,7,
{16}2,4,2,,7,5,{8}7,2,,36,,7,5,4,2q6[8:1],,2,8,
7p3[8:1],7,,1,2^7[8:1],2,,6,8,1,{4}3>6[4:1],,,
{16}36,,2,4,2,,7,5,{8}7,2,,45,,{16}1,8,1,8,1,8,2,7,1,8,2,7,1,8,
{8}2-5[8:5]/7,,,,,,,1,1-6[8:5],1,,,,,,
8,8-3[8:5],8,,,,,,7,7-4[8:5],7,,,,,,1,8,
{1}2p4[2:3]/7q5[2:3],,,,,,,,
E

Re:MASTER


  • MAS─不要なノーツを削除 8-3[8:1],3,8,2-5[8:1],5,2,7-4[8:1],4,7,1-6[8:1],6,1,8-4[8:1]1,,18,, → 8-3[8:1],3,8,2-5[8:1],5,2,7-4[8:1],4,7,1-6[8:1],6,1,8-4[8:1],,18,, -- らぐにゃ (2026-01-17 22:18:54)
  • MASTER譜面の一部スライドを修正しました。追加修正等ありましたらよろしくお願いします。 -- Sugar (2026-07-19 20:51:05)
名前:
コメント:

タグ:

+ タグ編集
  • タグ:
最終更新:2026年10月03日 22:14