アットウィキロゴ

ALiVE

アーティスト REDALiCE

BPM BASIC ADVANCED EXPERT MASTER Re:MASTER
170 3 7+ 11 13 -

EXPERT MASTER Re:MASTER
譜面制作者 サファ太 ぴちネコ -

BASIC


ADVANCED


EXPERT


MASTER

(170)
{0.5}Ch[1:2],
{8}1,1,,2h[8:3],,,B6,,2,,3,3h[8:3],,B5,B6,,
8,8,,7h[8:3],,,B3,,7,,6,6h[8:3],,B4,B3,,
1,1,,7h[8:3]/8,,,E2,,5,,34,3h[8:3]/4,,E7,E6,,
1,1,,7h[8:3]/8,,,E2,,{1}5p4[2:1],
{8}4b-2[8:1]/5b,,1,,,4,35,,4-2[8:1]/5,,1,1,,7,
2-6[8:1],6-2[8:1],,,7-3[8:1],3-7[8:1],,1,1>8[8:3],,Ch[8:3],,,,,1b,1b,,
4/5-7[8:1],,8,,,5,46,,4/5-7[8:1],,8,8,,2,
7-3[8:1],3-7[8:1],,,2-6[8:1],6-2[8:1],,8,8,,E1,E2/E8,E3/E7,E4/E6,E5,,2b/7b,,
7,7V51[4:1],,1V74[4:1],,3,2,1,8,8-3[8:1]*-5[8:1],,,,24,35,{16}6,6,
{8}5,5V37[4:1],,7V52[4:1],,1,8,7,6,45,,E3/E4/E7/E8,,18,{16}2,1,3,8,
{8}2,2V48[4:1],,8V25[4:1],,6,7,8,1,1-4[8:1]*-6[8:1],,,,57,46,{16}3,3,
{8}4,4V62[4:1],,2V47[4:1],,8,1,2,3,45,,E2/E3/E6/E7,,18,{16}7,5,6,4,
{8}5^3[8:1],5h[8:3],,,4^6[8:1],4h[8:3],,,
7^5[8:1],7h[8:3],,,2^4[8:1],2h[8:3],,,
5^7[8:1],5h[8:3],,,4^2[8:1],4h[8:3],,,
6^8[8:1],6h[8:3],,,3^1[8:1],3h[8:3],,,
{4}5h[8:1],5h[8:1]/6h[8:1],4h[8:1]/5h[8:1],5h[8:1]/7h[8:1],
3h[8:1]/5h[8:1],5h[8:1]/8h[8:1],2h[8:1]/5h[8:1],1h[8:1]/5h[8:1],
{16}3,4,3,4,2,5,2,5,1,6,1,6,8,7,8,7,
{24}E2,E3,E4,E8,E7,E6,{32}1x,2x,3x,4x,8x,7x,6x,5x,
{4}Chf[2:1],,,,,7/8-6[8:1],
1-5[8:1]/8x,1x/2<6[8:1],2x/4x,{8}4,4h[8:3],,B5/E5,,38,27,16,8b,,
{16}7,4,6,3,5h[8:1],,E4,,2,6,3,7,4h[8:1],,E6,,
7,3,6,2,5h[8:1],,E4,,2,6,3,7,{4}4-2[8:1],
4x/5-1[8:1],5x/6^3[8:1],6x/8x,{8}8,8h[8:3],,B4/E5,,16,27,38,1b,,
{16}2,5,3,6,4h[8:1],,E6,,7,3,6,2,5h[8:1],,E4,,{8}2b-7[8:1],,,,5,4,36,,
2x/8x,1,78,6,45,3,12,1-5[8:1]/2,,B3/B4,,6,56,,E1/E2/E3,,
{16}6-1[8:1],4,7,5,6x,,,,4-8[8:1],6,3,5,4x,,,,
5-1[8:1],3,6,4,5x,,,,3-8[8:1],5,2,4,3x,,,,
{8}1x/7x,8,12,3,45,6,78,7/8-4[8:1],,B5/B6,,3,34,,E1/E7/E8,,
{16}3-8[8:1],5,2,4,3x,,,,6-1[8:1],4,7,5,6x,,,,
{8}B4/B5/Cf,,,{16}1,8,{2}2^4[8:1]/7^5[8:1],
{1}Ch[4:11],{8}B2,,,E2,,,B1/E1,,B7,,,E8,,,B8/E1,,,2,3,6,7-2[8:1],,C,,
1b/8b,,,3,4/5p8[4:1],,8<3[8:3],,2h[4:1],,,1,1x-5[8:1],,1x/4x-8[8:1],,
4x/5x,,,2,1/8q5[4:1],,5<2[8:3],,3h[4:1],,,4,4x-8[8:1],,1x-5[8:1]/4x,,
1x/2x,,,6,4q1[4:1]/5,,1>6[8:3],,7h[4:1],,,8,8x-4[8:1],,5x-1[8:1]/8x,,
5x/6x,,,36,{4}3-8[8:1]/6-1[8:1],3>5[2:1]/6<4[2:1],3x/6x,,,1b/8b,
{8}1^3[8:1],1h[8:3],,,5^7[8:1],5h[8:3],,,
2^4[8:1],2h[8:3],,,6^8[8:1],6h[8:3],,,
3^5[8:1],3h[8:3],,,7^1[8:1],7h[8:3],,,
4^6[8:1],4h[8:3],,,8^2[8:1],8h[8:3],,,
{4}4h[8:1],3h[8:1]/4h[8:1],4h[8:1]/5h[8:1],2h[8:1]/4h[8:1],
4h[8:1]/6h[8:1],1h[8:1]/4h[8:1],4h[8:1]/7h[8:1],4h[8:1]/8h[8:1],
{16}6,5,6,5,7,4,7,4,8,3,8,3,1,2,1,2,
{24}E8,E7,E6,E2,E3,E4,{32}8x,7x,6x,5x,1x,2x,3x,4x,
{4}Chf[2:1],,,,,1-3[8:1]/2,
1x/8-4[8:1],7pp2[4:1]/8x,5x/7x,{8}4,4h[4:1],,B5/B6,,34,28,17,5b/6b,,
{16}7,5,8,4,1h[8:1],,B2,,3,1,4,8,5h[8:1],,B6,,
7,5,8,4,1h[8:1],,B2,,3,1,4,8,{4}5-7[8:1],
4-8[8:1]/5x,3pp6[4:1]/4x,1x/3x,{8}8,8h[4:1],,B3/B4,,56,17,28,3b/4b,,
{16}2,4,1,5,8h[8:1],,B7,,6,8,5,1,4h[8:1],,B3,,{8}2b-7[8:1],,,,5,4,36,,
1x/3x,8,67,5,34,2,18,1-5[8:1]/8,,1b/B3/E3,,6,47,56,B1/B2/E1/E2/E3,,
{16}6q2[8:1],4,7,5,6x,,,,4p8[8:1],6,3,5,4x,,,,
5q1[8:1],3,6,4,5x,,,,3p7[8:1],5,2,4,3x,,,,
{8}6x/8x,1,23,4,56,7,18,1/8-4[8:1],,8b/B6/E7,,3,25,34,B7/B8/E1/E7/E8,,
{16}3^8[8:1],5,2,4,3x,,,,6^1[8:1],4,7,5,6x,,,,
{8}B4/B5/Cf,,,{16}1,8,{1}2^4[8:1]/7^5[8:1],,,,
E

Re:MASTER


名前:
コメント:

タグ:

+ タグ編集
  • タグ:
最終更新:2026年04月05日 18:44