BASIC
ADVANCED
EXPERT
MASTER
(128)
{8}E4/E5,E3,E2,Ch[4:1],,,2q5[2:1],,,,,,,
{4}4x/6h[1:1],5,,5,3h[1:1],4,,4,7h[1:1],5,,5,3,
{12},,2x/6x,3x/7x,2x/6x,3x/7x,2x/6x,3x/7x,,
{2}4hx[8:3]/5hx[8:3],{24}B2/B7,C,E5,
{8}4hx[4:1]/5hx[4:1],,,{24}B2/B7,C,E5,
{8}4hx[4:3]/5hx[4:3],,,,,,,{24}B2/B7,C,E5,
{4}4hx[8:5]/5hx[8:5],,,{8}4x/5x,{1}4x-1[2:1]/5x-8[2:1],
{4}3/7h[1:2],,4,4,1>5[4:1],,{8},8b,8b,,
{4}2h[2:3],,5,5,3,8-5[8:1],{8},2b,4b,5b,
{4}7h[1:2],5,5,1,Chf[4:1],,{8},8b,8b,,
{4}2h[4:5],4,4,8,5>7[8:3],{16},,,Cf,{4},1x,
7h[1:2],5,{8}4-1[8:1],5,4x,,4-1[8:1],5,4x,,4,8b,8b,,
2h[2:3],,4,,5-8[8:1],4,5x,,5-8[8:1],4,5x,,5,2b,8b,6b,
7h[1:2],,5,,4-1[8:1],5,4x,,4pp4[4:1],5,,,,8b,8b,,
2h[2:3],,4,,8-5[8:1],1,8x,,8-5[8:1],1,8x,,7,2b,8b,6b,
{4}B3/B4/B5/Cf,8,8,8,B4/B5/B6/Cf,1s5[8:3],,8,
B3/B4/B5/Cf,8,8,8,B4/B5/B6/Cf,1>6[4:1],7,8,
{8}1/Cf,1,2,2,3,3,4,4,8/Cf,8,7,7,6,6,5,5,
1/Cf,2,3,4,8/Cf,7,6,5,1x,,7b/8b,1b,1b/2b,3b,4b/5b-8[8:1],6b,
{4}5bqq5[4:1]/7b,5x,1w5[8:1],{32}1x,Cf,,,,,,,
{4}2x/7-2[8:1],3-6[8:1]/7x,3x/7-2[8:1],3x/7x,
{8}3/5h[12:1],1,4h[12:1]/6,8,3/5h[12:1],1,4h[12:1]/6^3[8:1],8,
2b/6,,1v2[8:1]*v4[8:1],1,{4}1-5[8:1]*v7[8:1],1,
{8}3x/6,5/8x,3x/6,5/8x,3x/6,5/8x,3x/6,5/8x,
{4}2-7[8:1]/5,2x/6-3[8:1],2-7[8:1]/6x,2x/6x,
{8}4h[12:1]/6,8,3/5h[12:1],1,4h[12:1]/6,8,3/5h[12:1],1,
7x,{32}E2,E3,E4,E5,{8}8v5[8:1]*v7[8:1],8,{4}8v2[8:1]*-4[8:1],8,
{8}3/6x,1x,3-6[8:1]/6^1[8:1],8x,3x/6x,,{16}8x,8x,8x,,
{4}1xqq4[2:1],4,5,{8}6-3[8:1],6,{4}2h[4:1]/6qq8[8:3],6x,1,
{8}1v3[8:1]*v7[8:1],28,{4}1>5[8:1]*<5[8:1],1,3x/7x,
{8}26,2^7[8:1]/6^3[8:1],37,26,,2^7[8:1]/6^3[8:1],37,2x/6x,,
1>6[8:1],6v1[8:1],1,7x,7x,8x,8qq4[8:3],,E5,E4,E3,E2,E1,B3/B6/Cf,,1x/8x,,
6-4[8:1]/7-3[8:1],8,,,2-6[8:1]/3-5[8:1],1,,,
6/7z3[8:3],8x,8x,1x,1x,,2^7[8:1]/5,,
2/6^3[8:1],5,2^7[8:1]/6,1,2/6^3[8:1],5,16,1,
5,5,{16}26,37,,25,{8},1b/7b,1b/7b^2[8:1],,
3^6[8:1]/7,4,3/7^2[8:1],8,37,4,3v5[8:1]/6V82[8:1],47,,,
{16}1x/7x,1x/7x,,2x/6x,{8},1b,4b/6b^3[8:1],5b,
2^7[8:1]/6,1,2/6^3[8:1],5,26,1,2v5[8:1]/7v5[8:1],18,27,,
{16}28,28,,46,{8},2b/8b,2b-7[8:1]/8b,,
2/6-3[8:1],5,2-7[8:1]/6,1,26,5,3v5[8:1]/6V82[8:1],25,,,
{16}1x/7x,1x/7x,,2x/6x,{8},4,2-5[8:1]/6-1[8:1],37,26,,
18,7,68,1,12,3,24,1,2-6[8:1]/8-4[8:1],46,2x/8x,,3b/7b,,
28,3,14,8,78,6,3-7[8:1]/5-1[8:1],17,3x/5x,,{16}2x/6x,2x/6x,,8b,{8},2b/6b,3b/5b,2b/6b,
78,6,57,8,12,3,24,1,78,5,4-8[8:1]/6-2[8:1],28,4x/6x,,3b/7b,,
24,5,56,7,58,7,46,3,24,1,3/5V31[4:1],4,5/6v8[8:1],7,6,,
{8}1xs5[2:1]/7x,,,,,,{16},{8}E8,E7,E6,
3hx[4:1],,,{16},{8}4x,4xpp4[4:1]*qq4[4:1],,,,,,,
{16}2x/6x,2x/6x,2x/6x,2x/6x,,,{4}4x/8x^5[8:1],3x,1x^4[8:1]/5x,6x,
{24}7b,,7,5,,5,6,,6,4,,4,5,3,5,3,,{16}2hx[16:3]/6hx[16:3],,,,,
{24}2,,2,4,,4,3,,3,5,,5,4,6,4,6,,{16}3hx[16:3]/7hx[16:3],,,,,
{24}7,,7,5,,5,6p4[8:3],,6,4,,4,{2},
2h[8:3]/6h[8:3],{4}3/7h[4:1],B2/B3/E3,
B6/B7/E7/Ch[4:7],,,,,,,B1/B8/E1,
{1},,,,
E
Re:MASTER
最終更新:2026年04月05日 14:08