BASIC
ADVANCED
EXPERT
MASTER
(190)
{0.5}4h[2:3]/5-8[4:5],4-1[4:5]/5h[2:3],
{4}6h[1:1],,4,5,5,,47,,3h[1:1],,5,4,4,,1b/7b,,
{8}6h[4:3],,,4h[8:5],,,,,5h[4:3],,,3h[8:5],,,,,
4h[4:3],,,2h[8:5],,,,,{4}3,4,35,,
{8}6h[4:3],,,4h[8:5],,,,,5h[4:3],,,3h[8:5],,,,,
4h[4:3],,,2h[8:5],,,,,{4}3,4,45,,
45,{8}6h[8:3],,,5,56,,46,,3h[8:3],,,4,34,,
5,,4/6h[8:3],,,5,56,,4,,3h[8:3]/5,,,4,34,,
4,,3h[4:1]/5h[4:1],,,35,35,,3,,2h[4:1]/5h[4:1],,,25,25,,
6,,4h[4:1]/7h[4:1],,,47,47,,6,4,{4}5,5,46,3/7p3[4:1],,{8}2,2,24,,3^6[4:1]/6,,,,7,7,57,,
4/7^4[4:1],,,,2,2,12,,7,7,78,,16,,25,,
{4}3-5[4:1],2,1-3[4:1],8,7-1[4:1],6,5-7[4:1],4,
{8}3,3,8,8,17,26,35,,{4}B2/B3/B4/E4,B5/B6/B7/E6,18,2b/7b,
6h[2:1],B7/E8,{8}4,3,6,5,2h[2:1],,B2/E2,,5,6,3,4,
7h[2:1],,B7/B8,,4,3,6,5,{16}E2,B2,B3,E4,E7,B7,B8,E1,E3,B3,B4,E5,1x,,,,
{8}2h[2:1],,B1/E2,,4,5,3x,4,7h[2:1],,B7/B8,,4,3,6x,5,
2h[4:1],,B1/B2,,{16}5,4,5,,6,,6,,3,4,3,,2,,2,,8,1,8,,2b/7b,,,,
{4}36,45,34,46,24,47,14,48,{16}4,8,4,8,3,7,3,7,2,6,2,6,1,5,1,5,
{4}8b,,,1-5[8:1]/8-4[8:1],1b/8b,2x/7x,
{8}46,3,2-5[8:1]/8,1,2/7-1[8:1],6,47,3,2x/5x,,3/6^3[8:1],7,36,,
2-6[8:1],1,2^5[8:1],8,2,7,7-3[8:1],4-1[8:1],7,4,8b,,17,26,
{4}3-5[8:1]/5-7[8:1],3/5>1[4:1],{8}8x,7,6,5,1-4[8:1],6^1[8:1],1,6,3b,,12,3,
4/8-2[8:1],,3-5[8:1],3,7-3[8:1],7,3,2,15,6,47,3,
{4}2b/5b,3^8[8:1]/7^4[8:1],3b/7b,2x/6x,
{8}45,6,3/7-4[8:1],8,2-8[8:1]/7,3,25,6,4x/7x,,3^6[8:1]/6,2,36,,
7-3[8:1],8,7^4[8:1],1,7,2,2-6[8:1],5-8[8:1],2,5,1b,,28,37,
{4}4-2[8:1]/6-4[8:1],4<8[4:1]/6,{8}1x,2,3,4,8-5[8:1],3^8[8:1],8,3,Cf,,
18,2b/7b,,4,35,6,57,8,4,3,2-5[8:1]/6-1[8:1],15,26,,3b/7b,,,,
{1}5-8[4:3],4-1[4:3],5-8[4:3],4-1[4:3],
5^8[4:3],4^1[4:3],5^8[4:3],{2}Ch[2:1],8x,
{16}3h[16:3],,,4,3,,4,,2h[16:3],,,4,2,,4,,1h[16:3],,,4,1,,{8}4,2,2,4,3,
{16}6h[16:3],,,5,6,,5,,7h[16:3],,,5,7,,5,,8h[16:3],,,5,8,,{8}5,7,7,5,6,
4,4,35,3,2,2,15,1,8,8,37,7,6,6,25,5,
{16}4,6,4,6,3,5,3,5,2,6,2,6,1,7,1,7,{4}8x,,,45,
{16}3,6,3,6,4,5,4,5,3,6,2,7,1b,,,,
{8}2-4[8:1],,B4/E5,,6,7,3,3,7-5[8:1],,B5/E5,,3,2,17,7,
{16}2,6,2,6,3,5,3,5,4,4,4,4,4b,,,,
{8}2-4[8:1],,B4/E5,,5,6,1,1,7-5[8:1],,B5/E5,,4,3,8,8,
3-5[8:1],,5,,{16}7,4,6,5,7,,7,,2,5,3,4,1,,1,,7,4,6,5,8b,,,,
{4}1/2x-4[8:1],C,1/2-4[8:1],5,7-5[8:1]/8,C,7-5[8:1]/8,4,
3-1[8:1]/4,C,3-1[8:1]/4,8,{16}7,3,7,3,8,2,8,2,1,1,1,1,1b,,,,
{4}2-4[8:1]/5,B1,8-6[8:1]/B5,C,1-3[8:1]/4,B8,7-5[8:1]/B4,C,
{16}1,2,3,4,5,6,7,8,{32}1,2,3,4,5,6,7,8,1,2,3,4,5,6,7,8,
{4}1x/5xp4[2:1],,,1-5[8:1],1b/5b,8-4[8:1],4b/8b,
{8}2x/6x,2x/6x,,45,36,27,1x/8xw4[8:1],,8b,,
2x-6[8:1],,2/6^3[8:1],7,8,8,1,7-5[8:1],3^8[8:1],7-3[8:1],3,7,1b,,28,37,
{4}4-2[8:1]/6-4[8:1],4V68[4:1]/6,{8}1x,2,3,4,8p4[8:1],3^8[8:1],8,3,6b,,
78,6,1-7[8:1]/5,,6-4[8:1],6,2-6[8:1],2,6,7,48,3,25,6,4b/7b,,35,26,
1-5[8:1]/7-3[8:1],,1b/7b,,4x,35,2-5[8:1]/6,1,2/7-1[8:1],6,47,3,2x/5x,,
3/6^3[8:1],7,36,,2-6[8:1],1,2^5[8:1],8,2,7,7-3[8:1],4^1[8:1],7,4,8b,,17,26,
{4}3-5[8:1]/5-1[8:1],35,{8}48,48,37,37,
2b/6b,1x,3bv8[8:1]/7b^4[8:1],8x,3b/7b,,1x/5x,3x/7x,,
12,38,47,34,25,16,78,1-5[8:1],6,1,7,
{4}6-2[8:1]/8-4[8:1],6b/8b<1[2:3],{0.5}8b,
{8}6h[4:1],5,4,3h[4:1],5,4,2,25,3h[4:1],4,5,6h[4:1],4,5,56,,
3h[4:1],4,4,5h[4:1],4,4,35,,6h[4:1],5,5,4h[4:1],5,5,46,,
3,3,4,4,5,5,6,{4}5/6h[2:1],5,4,3/6-4[8:1],
{1},,,,
E
Re:MASTER
最終更新:2026年04月05日 00:45