アットウィキロゴ

TwisteD! XD

アーティスト t+pazolite

BPM BASIC ADVANCED EXPERT MASTER Re:MASTER
200 4 8+ 11 13+ -

EXPERT MASTER Re:MASTER
譜面制作者 華火職人 サファ太 -

BASIC


ADVANCED


EXPERT


MASTER

(200)
{4}B2/B3/B6/B7/Ch[1:1],,,,,,,5,
6h[4:7],,,C,B2/B3,,,4,{8}3h[4:7],,,Ch[8:5],{4},,,,,4,
3/5h[4:7],,,B2/B3,C,,,6,{8}4/6h[2:3],,,Ch[8:5],{2},,,
{1}1x^4[2:1]/5x,5x/8x>5[2:1],1x>5[2:1]*<5[2:1]/5x,{4}46,68,28,24,
3hx[4:3]/5x,{8}6,6,7,7,8,8,4x/8hx[4:3],,3,3,2,2,1,1,
{16}1,8,1,8,1,8,1,8,1x,2x,3x,4x,7x,6x,5x,4x,
{2}Ch[4:1],{16}8x,1x,8x,,{4}2b-5[8:1]/7b,
5x,{8}6,5,47,3,1/2h[4:1],,4,35,6,57,8,17,2^5[8:1]/8,,
5x,,6,57,{16}4,5,4,,{4}3x/6x,B4/B5/E4/E6,C/E3/E7,B1/B8/E2/E8,1x/8x-4[8:1],
4x,{8}3,4,25,6,7h[4:1]/8,,5,46,3,24,1,28,3/7^4[8:1],,
4x,,3,25,{16}7,8,7,,{4}1x/6x,B1/B8/E2/E8,C/E3/E7,B4/B5/E4/E6,4x/5x,
{8}3-6[8:1]/8b-5[8:1],38,,,2,1,38,,2b-5[8:1]/7-4[8:1],27,,,8,1,27,,
1b-4[8:1]/6b-3[8:1],16,,,7,8,{4}16,B3/B4/E3/E5,C/E2/E6,B7/B8/E1/E7,7x/8x,
{8}3b-6[8:1]/5-8[8:1],35,,,7,6,15,,2-5[8:1]/4b-7[8:1],24,,,4,3,28,,
4b-1[8:1]/6b-3[8:1],46,,,2,3,{4}47,B7/B8/E1/E7,C/E2/E6,B3/B4/E3/E5,3x/4x,
4b/6,2/4x,4x/7,3/4x,{8}4x,4,6x,6,4x,4,7x,7,
{16}4x,8,4,8,3x,7,3,7,2x,6,2,6,{4}8x,57,B2/B6/E3/E7,1w5[8:1]/3,1b,
2x/7x,{8}E3,E2,B7/E8,,B2/B6/C,,8,8h[4:1],7,7h[4:1],6,6h[4:1],5,5,
4x/7x,,E3,E2,E8,E7,B4/B5/C,,1-5[8:1],7-3[8:1],,,4x,,2x/6x,,
1x/8x,,E7,E8,B2/E2,,B3/B7/C,,1,1h[4:1],2,2h[4:1],3,3h[4:1],4,4,
2x/5x,,B5/E6,B1/E2,B7/E8,B3/E4,E1,E5,{4}Ch[2:1],,,1b/8b,
{8}6,47,3,25,6,47,8h[4:1],,E4,B1/E2,E6,B8/E8,B2/B3,C,B6/B7,,
1x/8x,,1,24,8,57,4x/5x,,E6,B8/E8,E4,B1/E2,C,,
2b-6[8:1]/7b-1[8:1],,,,5,4,26,1,7,5,B4,B2/E3,B5,B7/E7,E4,B1/E2,E6,B8/E8,
{16}4,6,4,6,2,8,2,8,1x,2x,3x,4x,8x,7x,6x,5x,{1}Cf[2:1],
1qq6[2:3]/2,3,4qq1[2:3]/5,6,7qq4[2:3]/8,1,
3h[1:1]/5^8[2:1],{2}7,35,{8}46,5,25,4,47,5,15,15,
{32}1x,2x,3x,4x,5x,6x,7x,8x,E1,E2,E3,E4,E5,E6,E7,E8,{4}E1,1x/8x,
{16}2b/7b,,3,4,2,,24,,2-5[8:1],1,,1,2,,7,,47,,6,5,{8}7-3[8:1],7,1,1,2x/5x,,
4x/6x,{16}3,4,2,,18,,7hx[16:3]/8,,,6hx[16:3],,,5x,,{8}4-8[8:1],4,7^4[8:1],7,1,2,3x/8x,,
2x/7x,{16}3,4,3,,47,,7-4[8:1],8,,8,7,,1,,2x/5x,,,4x/7x,,,4x/5x,,3,4,3,4,1b,,,,
2x/5x,,6,5,7,,18,,1x/2hx[16:3],,,3hx[16:3],,,4x,,{8}5-1[8:1],5,2^5[8:1],2,8,7,1x/6x,,
1b/8b,{16}7,5,6,,34,,2,1,,1,3,,38,,45,,6,5,7,,27,,{12}3x,3x,4x,2x/5x,,,
{16}4x/7x,,6,5,7,,78,,16,,3,4,2,,18,,{8}7x-4[8:1]/8x-4[8:1],,7x/8x,,35,35,1b/7b,,
6x,5,47,6,3x,4,28,28,{16}2x,4,3,5,4,6,5,7,1x,8,1,,2b/7b,,,,
{8}6^3[8:1],,3,2h[4:1],,1,38,,2^7[8:1],,7,6h[4:1],,5,47,,
8-4[8:1],,4,3^8[8:1],,7,7x,,E6,E7,B8/E8,E2,E3,B4/E4,C,,
2/7h[4:1],,8,1/6-1[8:1],,3,3x,,2h[4:1]/4,,1,3/8-4[8:1],,2,2,,
1,24,3,46,7,18,{4}1x-4[8:1]/2x-5[8:1],1x/2x,,{16}6,5,6,,1b,,,,
{8}3-7[8:1]/4,,7,6^3[8:1],,1,1,,2^7[8:1]/4,,7,6-2[8:1],,3,3,,
4-8[8:1]/5,,8,7^4[8:1],,3,3x,,E2,E3,B4/E4,E6,E7,B8/E8,C,,
6x-4[8:1],6,1,1,2x-6[8:1],2,6,7,8x-4[8:1],8,1x-5[8:1],1,8x-4[8:1],8,1x,1,
{16}1,8,1,8,2,7,2,7,3,6,3,6,4,5,4,5,{32}4x,3x,2x,1x,8x,7x,6x,5x,
4x,3x,2x,1x,8x,7x,6x,5x,E5,E4,E3,E2,E1,E8,E7,E6,{4}E5,
{1}1x/8x^5[2:1],1x<4[2:1]/4x,4x/8x<4[2:1]*>4[2:1],{4}24,28,68,46,
1x/5x-1[4:1],{8}2,2,3,3,4,4,4x-8[4:1]/8x,,7,7,6,6,5,5,
{16}6x,4,6,4,5x,3,5,3,5x,6,7,8,3x,2,1,8,
{2}Ch[4:1],{24}1x/8x,27,36,45,,,
{1}2b/7b,,,,
E

Re:MASTER


名前:
コメント:

タグ:

+ タグ編集
  • タグ:
最終更新:2026年04月11日 22:02