BASIC
ADVANCED
EXPERT
MASTER
(178)
{16}4,5,3x,,,,
{8}47,,25,,45,45,,3,6,4,5,4h[4:1]/5h[4:1],,,B3/B4/B5/E5,,
25,,47,,45,45,,6,4,4,5,5,1x-5[8:1]/7x-5[8:1],,1x/7x,,
3hx[4:1]/4x,,2,,5h[4:1],6,7,,4h[4:1],3,2,,6h[4:1],,B3/B4/B5/E5,,
2-6[4:1],,6>2[4:1],,8,7,6,,36,36,4-1[8:1]/5,,,,,,
2,2,6,6,3,3,{4}3-5[8:1],6-2[8:1],1-7[8:1],5-3[8:1],,
8v3[8:1]*v5[8:1],,1h[8:1]/7h[8:1],1h[8:1]/8h[8:1],
{2}7-2[8:1],B1/B2/B3/B4/B5/B6/B7/B8/Cf/E2/E4/E6/E8,
{8}2,2,1,1,{4}38,16,4h[8:1]/5h[8:1],3v8[8:1]/6v8[8:1],,,
{8}3,4,5,6,2^5[8:1]/7h[4:1],,,,{16}5,6,5,6,5,6,5,6,{4}4h[4:1],C,
{8}2,2,5,5,3,3,6,6,{4}2-8[8:1],1v4[8:1]*v6[8:1],,2,
8-2[8:1],8s4[4:1],,,4q6[4:1]/5h[2:1],,,18,
{8}7,7,4,4,7^5[8:1],7,{4}4,2-6[8:1],8-4[8:1],{8}3,2,1,,
{2}3p6[8:1]/6^1[8:1],3^8[8:1]/6q3[8:1],{8}2b/7b,2b/7b,,,,,,,
5h[4:1]/7,,3>7[4:1],,5,4,3,2h[8:7],,,4,,7,,4,,
2/4h[4:1],,6<2[4:1],,4,5,6,7h[8:7],,,5,,2,,5,,
5h[4:1]/7,,3>7[4:1],,5,4,3,2b/5b,,45,45,,{4}4-2[8:1]/6-8[8:1],,
1>5[4:1],5<1[4:1],1,5,{16}3,4,3,4,3,4,3,4,{4}3x,27,
{8}1h[8:1],5,3h[8:1],6,1h[8:1],5,3h[8:1],6,2h[4:1],,5,5,
4-7[8:1]/5h[2:1],,,,7,7,57,7,7,7,57,7,{4}8w4[8:1],,26,48,
{8}2-5[8:1]*-6[8:1],2,,,7-3[8:1]*-4[8:1],7,,,1,2,5,6,3v6[8:1]/7v2[8:1],,,,
35,26,{4}1>8[8:3]/7,,,B4/B5/Cf/E5,,,36,
2^4[8:1],8,{8}2^4[8:1],2,6,,5h[2:1]/7,6,7,6,7^4[8:1],,4,,
3-5[8:1],,7,,6-4[8:1],6,2,,3h[2:1],4,5,4,5,,36,,
7^5[8:1],,1,,7^5[8:1],7,3,,2/4h[2:1],3,2,3,2^5[8:1],,5,,
7h[8:5],,6,6,,1,,7,4,45,,56,47,,27,,
1-5[8:1],8,,8,7-4[8:1],8,,8,1-5[8:1],8,,8,5h[8:1]/7h[8:1],,2h[8:1]/4h[8:1],,
1-6[8:1]/8,7,,7,1/8-3[8:1],2,,2,1-6[8:1]/8,7,,7,4h[8:1]/7h[8:1],,2h[8:1]/5h[8:1],,
1/8-4[8:1],,2,{4}2-4[8:1],7-4[8:1],8-4[8:1],1>8[8:3],5h[8:5],,{8},
{4}Cf,18,27,36,{16}4,5,4,5,4,5,4,5,{8}3,2,1-5[8:1],,1x/2x-4[8:1],,,,
6,6h[4:1],,3,5,4h[4:1],,6,6-4[8:1]*-8[8:1],,,,
3,3,6,6,4,4h[4:1],,5,1x/6x,1x/6x,3x/8x,3x/8x,2b/7b,,
{4}4v5[16:1]/6v5[16:1],{24},Cf,,,,,{4}2v1[16:1]/8v1[16:1],{24},Cf,,,,,
{4}3v4[16:1]/5v4[16:1],{24},Cf,,,,,{4}1v8[16:1]/7v8[16:1],{24},Cf,,,,,
{4}4v5[16:1]/6v5[16:1],{24},Cf,,,,,{4}3h[4:1],7h[4:1],4-8[8:1],34,B2/B5/B6/Cf,,27,
{8}8-6[8:1],8,1-5[8:1],1,{4}2-4[8:1],1,1qq6[4:1]/2q5[4:1],,,
{8},78,7^4[8:1]/8,,3,3q8[8:1],,5,6,7,{16}1,8,1,8,1,8,1,8,{4}1b,27,
3^8[8:1]/5h[4:1],3x,4h[4:1]/6^1[8:1],6x,3^8[8:1]/5h[4:1],3x,
4h[4:1]/6^1[8:1],6x,3p7[8:1]*^8[8:1]/5,3x,4/6^1[8:1]*q2[8:1],6x,
B3/B4/B5/C/E4/E4/E5,B1/B7/B8/C/E1/E8,28,17,
{32}1x,2x,3x,4x,5x,6x,7x,8x,1x,2x,3x,4x,5x,6x,7x,8x,
{8}1x,,35,4,57,6,{2}2/4w8[8:1],{8},3,24,,36,36,,
{4}5/7^4[8:1],7x/8x-4[8:1],1x^6[8:1]/8x^3[8:1],1x/8x,4x/5x,
{8}2b/7b,,4x/5x,6,6,4x/5x,3,3,4z8[8:1]/5h[4:1],,,,,6,6,{16}4,5,4,5,
{8},2x/4x,3,3,5x/7x,6,6,4h[4:1]/5s1[8:1],,,,,3,3,{16}5,4,5,4,
{8},4x/8x,7,6,1x/4x,2,3,2V48[4:1]/7V51[4:1],,,,,{16}2,7,2,7,1x,,,,
{8}2/5h[8:3],2,3,3V51[4:1],,6,7,,4h[8:3]/7,7,6,6V48[4:1],,3,2,,
2/5h[8:3],2,3,3V51[4:1],,6,7,,8b,,,3b/6b,,,B1/B2/B3/B4/B5/B6/B7/B8/Cf,,
{4},,,4/5h[4:9],{2}B3/B4/C,B1/B2/C,B7/B8/C,B5/B6/C,
B3/B4/Chf[4:5],7V51[4:1],{4},8b,,27,
{8}1-3[8:1],1,8-4[8:1],8,{4}7-5[8:1],8,7p4[4:1]/8pp3[4:1],,,
{8},12,1/2^5[8:1],,6,6p1[8:1],,4,3,2,{16}8,1,8,1,8,1,8,1,{4}8b,27,
2/6-1[8:1],{8}1x,2,3/6-1[8:1],,2x,3,4/6-1[8:1],,3x,4,5/6-1[8:1],,2x,3,
{4}4/6^1[8:1]*q2[8:1],6x,3p7[8:1]*^8[8:1]/5,3x,
B4/B5/B6/B7/C/E4/E5/E6,B2/B3/B4/B5/C/E4/E5/E6,1x/7x,2x/8x,
{32}8x,7x,6x,5x,4x,3x,2x,1x,8x,7x,6x,5x,4x,3x,2x,1x,
{8}8x,,46,5,24,3,{2}5w1[8:1]/7,{8},3,24,,57,57,,
{4}2^5[8:1]/4,1x-5[8:1]/2x,1x^6[8:1]/8x^3[8:1],1x/8x,4x/5x,
{8}2b/7b,3,3,24,1,6,6,57,8,3,3,24,1,{2}6-1[8:1]*-3[8:1],
{8}2,3,45,6,7,6,45,3,2^7[8:1],7^4[8:1],,,8,7,2b/6b,,
3x,7x,4,4,2/8h[4:1],,B3/B4/B5/E5,,3x,7x,4,4,1-5[8:1]/7-5[8:1],,1x/7x,,
3x,7x,4,4,2/8h[4:1],,B3/B4/B5/E5,,{16}7,8,7,8,7,8,7,8,
{8}7V51[4:1],,2b,2b,
{1},,,,,,
E
Re:MASTER
- 早速スライド速度に誤りがあったので修正しときました。 -- 嵐雅 (2021-05-21 21:53:33)
最終更新:2026年04月08日 22:37