EASY
BASIC
(140.0){1},,,,
{16},,,1,,,,,,,,1,,,,,
{16},,,1,,,,,,,1,,,,,,
{16},,,,8,,,,,,,8,,,,,
{16},,,8,,,,,,,8,,,,,,
{16},,,,1,,,,,,,1,,,,,
{16},,,1,,,,,,,1,,,,,,
{8},,7/8,,,8,,,
{8}1/2,,,1,,,1h[8:5]/8h[8:5],,
{8},,,(70.0),,,,,
{8},(140.0)1,,1,,(70.0)1,,,
{8}2,,,(140.0)8,,,8,,
{8},(70.0)8,,,8,,,(140.0)1,
{8},,1,,,1,,,
{8},1,,,,2,,,
{8},2,,,,3,,,
{8},3,,,,4,,,
{8},4/5,,,,5,,,
{8},5,,,,6,,,
{8},,,,,,,6,
{8},6,,5/6,,,,3,
{8},3,,3/4,,,,5,
{8},5,,3/6,,,,4,
{8},4,,3b/6b,,,,7,
{8},7,,7/8,,,,2,
{8},2,,1/2,,,,8,
{8},8,,2/7,,,,1,
{8},1,,2/7,,,,8,
{8},,,,,7,,,
{4},6,,,
{8}5,,,,,4,,,
{8},,,3,,,,,
{2}2,2,
{1}1-5[4:3],,
{1}8-4[4:3],,
{1}2-6[4:3],,
{16}7,,,,,,,7,,,,,,,,8,
{16},,,,,,,1,,,,,,,,2/7,{1},
{4}6,,6,4,
{4}4,4h[8:5],,,
(35.0){4},,(70.0)1,1,
{4}2,2,3,3,
{8}4,,4/5,,5,5,5,,
{8}6,6,6,,7,7,7,,
{8}8,1,1b/8b,,(140.0)8,,8,,
{8}8,,8,,7,7,7,,
{4}6/8,,6,6,
{8}6,,6,,5,5,5,,
{4}4/6,,4,4,
{8}4,,4,,3,3,3,,
{4}2/4,,2,2,
{4}2,2,1,1,
{4}1/8,1/8,{2}1-6[4:3],{1},
{2},8-3[4:3],{1},
{2},2-5[4:3],{1},
{16},,,,,,,,7/8,,,,,,,8,
{16},,,,,,,1/2,,,,,,,,1,
{16},,,,,,,2h[16:17]/7h[16:17],,,,,,,,,{1},
{16},,,,,,,,,3/4,,,,,5/6,,
{8},,,3h[8:17]/6h[8:17],{1},,,
E
ADVANCED
(140.0){4}3,3,4,4,
{4}3,4,3/4,6,
{4}6,5,5,6,
{16}5,,,,5/6,,,,,4/5,,4/5,,,,,
{16}3/6,,,3h[2:1],,,,,,,,5h[2:1],,,,,
{16},,,4h[16:7],,,,,,,6h[8:3],,,,,,
{16},,,,6h[16:7],,,,,,,4h[2:1],,,,,
{16},,,5h[16:7],,,,,,,3h[8:3],,,,,,
{16},,,,3h[16:7],,,,,,,4h[2:1],,,,,
{16},,,5h[16:7],,,,,,,6h[8:3],,,,,,
{4},4h[8:3]/5h[8:3],,,
{4}3h[8:3]/6h[8:3],,,4,
{16},5,,,,,(70.0)4>5[8:3],,,,,,,,,,
{8},(140.0)5/6,,3/4,,(70.0)5<4[8:3],,,
{16},,,,,,(140.0)4/5,,,3/6,,,2/7,,,1/8,
{8},(70.0)1w5[8:3],,,,,,(140.0)5/6,
{16},5/6,,,3/4,,,3/4,,,4/5,,4/5,,,,
{8}3/4,3/4,,4/5,4/5,,5/6,5/6,
{8},4/5,4/5,,2/4,2/4,,4/5,
{8}4/5,,5/7,5/7,,4/5,4/5,,
{8}1/2,1/2,,4/5,4/5,,7/8,7/8,
{8},4/5,4/5,,1/8,1/8,,1b-4[2:1]/8b-5[2:1],
{8},,,,,,,3,
{8},4,,3,,3/4,,6,
{8},5,,6,,5/6,,3,
{8},4,,3/4,,2/5,,6,
{8},5,,5/6,,4/7,,2,
{8},1,,2,,1/2,,7,
{8},8,,7,,7/8,,2,
{8},1,,1/2,,3/8,,7,
{8},8,,7/8,,1/6,,3h[16:3]/4h[16:3],
{8},,,,,3b/4b,,,
{4},5h[16:3]/6h[16:3],,,
{8}5b/6b,,,,,4h[16:3]/5h[16:3],,,
{8},,,4b/5b,,,,,
{16}3h[4:3]/6h[4:3],,,,,,,,,,,,,,,6h[2:1],
{16},,,,,,,4h[2:1],,,,,,,,5h[16:7],
{8},,,3h[8:3],,,,,
{16}3h[16:7],,,,,,,5h[2:1],,,,,,,,4h[16:7],
{8},,,6h[8:3],,,,,
{16}6h[16:7],,,,,,,5h[2:1],,,,,,,,4h[16:7],
{8},,,3h[8:3],,,,,
{16}4h[16:5]/5h[16:5],,,,,,,3/6,,,3/6,,,,,4/5,
{16},4/5,,,,,,3/6,,,3/6,,,,,2>7[16:9],{1},
{16}1/8,,1/8,,,7,,7,,8,,,7,,,6,
{16},,5,,,4,,,3,,,2,,,1w5[4:1],,
(35.0){8},,,,(70.0)3h[8:1],4,6h[8:1],5,
{8}2h[8:1],4,7h[8:1],5,2h[8:1],3,7h[8:1],6,
{8}2h[8:1],1,7h[8:1],8,3h[8:1],4,6h[8:1],5,
{8}2h[8:1],4,7h[8:1],5,2h[8:1],3,7h[8:1],6,
{16}1h[8:1],,8,,1b/8b,,4b/5b,,(140.0)3,,,4,,,3/4,,
{16}6,,,5,,,5/6,,3,,,4,,,3/5,,
{16}6,,,5,,,4/6,,3,,,4,,,2/5,,
{16}6,,,5,,,4/7,,3/4,,,5/6,,,4/5,,
{16}3/6,,,4/5,,,,,2,,,1,,,1/2,,
{16}7,,,8,,,7/8,,2,,,1,,,3/8,,
{16}7,,,8,,,1/6,,3,,,4,,,1/2,,
{16}6,,,5,,,7/8,,1/2,,,7/8,,,1/8,,
{16}1/8,,,,2/7,,,2h[2:1],,,,,,,,8h[2:1],
{16},,,,,,,1h[16:7],,,,,,,7h[8:3],,
{16},,,,,,,,7h[16:7],,,,,,,1h[2:1],
{16},,,,,,,8h[16:7],,,,,,,2h[8:3],,
{16},,,,,,,,2h[16:7],,,,,,,1h[2:1],
{16},,,,,,,8h[16:7],,,,,,,7h[8:3],,
{16},,,,,,,,1h[16:5]/8h[16:5],,,,,,,2/7,
{16},,2/7,,,,,1/8,,1/8,,,,,,2/7,
{16},,2/7,,,,,8<1[16:9],,,,,,,,,
{16},,,,,,,,1/8,,1/8,,,2,,2,
{16},1,,,2,,,3,,,4,,,5,,,
{16}6,,,7,,,{8}8w4[8:15],{1},,,
E
EXPERT
(140.0){4}4/5,2/3,1/8,6/7,
{16}4/5,,,,4,,,3/4,,,4/5,,4/5,,,,
{4}6/7,1/8,2/3,4/5,
{16}5,,,5/6,,,4/5,,,3,,3,,,6,,
{16}6,,,4/5,,,,,3,,,4/5,,,,,
{16}6,,,4/5,,,,,3/6,,4/5,,,3/6,,3/6,
{16},4/5,,,3/4,,,,2,,,3/4,,,,,
{16}5,,,3/4,,,,,2/5,,3/4,,,2/5,,2/5,
{16},3/4,,,5/6,,,,7,,,5/6,,,,,
{16}4,,,5/6,,,,,4/7,,5/6,,,4/7,,4/7,
{16},5/6,,,3h[16:3]/4h[16:3],,,,,,5h[16:3]/6h[16:3],,,,,,
{16}2h[16:3]/4h[16:3],,,,,,5h[16:3]/7h[16:3],,,,,,{643}3,,,,,,,,,,,,,,,,,,,,,,,,,,,,,,,,,,,,,,,,,,,,,,,,,,,,,,,,,,,,,,,,,,,{317}2,,,,,,,,,,,,,,,,,,,,,,,,,,,,,,,,,{983}1,,,,,,,,,,,,,,,,,,,,,,,,,,,,,,,,,,,,,,,,,
{16},{643}8,,,,,,,,,,,,,,,,,,,,,,,,,,,,,,,,,,,,,,,,,,,,,,,,,,,,,,,,,,,,,,,,,,,{317}7,,,,,,,,,,,,,,,,,,,,,,,,,,,,,,,,,{643}6,,,,,,,,,,,,,,,,,,,,,,,,,,,,,,,,,,,,,,,,,,,,,,,,,,,,,,,,,,,,,,,,,,,(70.0){4}5h[4:1],4h[4:1],{8}3h[8:1],
{8}2h[8:1],(140.0)1,,7/8,,(70.0)4h[4:1],,5h[8:1],
{16}6h[16:3],,,7h[16:3],,,(140.0)8,,,1/2,,,7/8,,,4/5,
{16},,(70.0)3h[8:1],,4,,6h[8:1],,5,,{12}4/5,{995}4/5,,,,,,,,,,,,,,,,,,,,,,,,,,,,,,,,,,,,,,,,,,,,,,,,,,,,,,,,,,,,,,,,,,,,,,,,,,,,,,,,,,,{24}4/5,,(140.0)7/8,,,
{16},7/8,,,1/2,,,1/2,,,6,,5/6,,,,
{8}3,3/4,,7,7/8,,2,1/2,
{8},6,5/7,,3,2/4,,7,
{8}6/8,,2,1/3,,5/6,4/7,,
{8}3/4,2/5,,7/8,1/6,,1/2,3/8,
{8},4/5,2/7,,1/8,3/6,,1bpp4[2:1]/8bqq5[2:1],
{8},,,,,,,3h[8:3],
{16},4,,,4,,2,,,1,,,7/8,,6h[8:3],,
{16},5,,,5,,7,,,8,,,1/2,,4h[8:3],,
{16},3,,,3,,5h[8:3],,,6,,,6,,1/8,,
{16},2/7,,,3/6,,4/5,,4/5,,3/6,,,,4h[16:3],,
{16},3h[16:3],,,2,,5h[16:3],,,6h[16:3],,,7,,1h[16:3],,
{16},2h[16:3],,,3,,8h[16:3],,,7h[16:3],,,6,,1,,
{8}2,3,4,5,6,7,8,1,
{16}1,,8,,8,,1/8,,,2/7,,,3/6,,3/4,,
{16},5/2h[16:9],,,,,,,,,7,7,,,,,
{16},,,,5/6,,,4/7h[16:9],,,,,,,,,
{16}2,2,,,,,,,,,4/5,,,3/6,,,
{16},,,,,,1/8,1/8,,,,,,,,,
{16}1b<5[2:1]/8b>4[2:1],,,,,,,,,,,,,,,4/5,
{16},,,,3,,,4/5,,,,,6,,,4/5,
{16},,,,3/6,,4/5,,,3/6,,3/6,,4/5,,,
{16}2-6[8:1],,,,,,,2^7[8:1],,,,,,,,2^5[8:1],
{8},,,2-5[8:1]*-7[8:1],,,,,
{16}7-3[8:1],,,,,,,7^2[8:1],,,,,,,,7^4[8:1],
{8},,,7-2[8:1]*-4[8:1],,,,,
{16}1/8,,,,,,,3/2h[16:3],,,3,,,,,4/5,
{16},4/5,,,,,,6/7h[16:3],,,6,,,,,1>8[16:9],{1},
{16}8,1,8,1,,2/7,,3/6,,4/5,,3,4,,6,5,
{16},2,4,,7,5,,2,1,,7,8,,1w5[4:1],,,
(35.0){16},,,,,,,,(70.0){629}3h[16:3],,,,,,,,,,,,,,,,,,,,,,,,,,,,,,,,,,,,,,,,,,,,,,,,,,,,,,,,,,,{619}4,,,,,,,,,,,,,,,,,,,,,,,,,,,,,,,,,,,,,,,,,,,,,,,,,,,,,,,,,,{16}5,{629}6h[16:3],,,,,,,,,,,,,,,,,,,,,,,,,,,,,,,,,,,,,,,,,,,,,,,,,,,,,,,,,,,{619}5,,,,,,,,,,,,,,,,,,,,,,,,,,,,,,,,,,,,,,,,,,,,,,,,,,,,,,,,,,{16}4,
{629}2h[16:3],,,,,,,,,,,,,,,,,,,,,,,,,,,,,,,,,,,,,,,,,,,,,,,,,,,,,,,,,,,{619}4,,,,,,,,,,,,,,,,,,,,,,,,,,,,,,,,,,,,,,,,,,,,,,,,,,,,,,,,,,{16}6,{629}7h[16:3],,,,,,,,,,,,,,,,,,,,,,,,,,,,,,,,,,,,,,,,,,,,,,,,,,,,,,,,,,,{619}5,,,,,,,,,,,,,,,,,,,,,,,,,,,,,,,,,,,,,,,,,,,,,,,,,,,,,,,,,,{16}3,{629}2h[16:3],,,,,,,,,,,,,,,,,,,,,,,,,,,,,,,,,,,,,,,,,,,,,,,,,,,,,,,,,,,{619}3,,,,,,,,,,,,,,,,,,,,,,,,,,,,,,,,,,,,,,,,,,,,,,,,,,,,,,,,,,{16}6,{629}7h[16:3],,,,,,,,,,,,,,,,,,,,,,,,,,,,,,,,,,,,,,,,,,,,,,,,,,,,,,,,,,,{619}6,,,,,,,,,,,,,,,,,,,,,,,,,,,,,,,,,,,,,,,,,,,,,,,,,,,,,,,,,,{16}3,
{629}1/2,,,,,,,,,,,,,,,,,,,,,,,,,,,,,,,,,,,,,,,,,,,,,,,,,,,,,,,,,,,{619}7/8,,,,,,,,,,,,,,,,,,,,,,,,,,,,,,,,,,,,,,,,,,,,,,,,,,,,,,,,,,{16}2/7,3/6,{639}4/5,,,,,,,,,,,,,,,,,,,,{621}4/5,,,,,,,,,,,,,,,,,,,,,,,,,,,,,,,,,,,,,,,,,,,,,,,,,,,,,,,,,,,,,,,,,,,,,,,,,,,,,,,,,,,,,,,,,,,,,,,,,{629}4/3h[16:3],,,,,,,,,,,,,,,,,,,,,,,,,,,,,,,,,,,,,,,,,,,,,,,,,,,,,,,,,,,{619}5,,,,,,,,,,,,,,,,,,,,,,,,,,,,,,,,,,,,,,,,,,,,,,,,,,,,,,,,,,{16}7,{629}5/6h[16:3],,,,,,,,,,,,,,,,,,,,,,,,,,,,,,,,,,,,,,,,,,,,,,,,,,,,,,,,,,,{619}4,,,,,,,,,,,,,,,,,,,,,,,,,,,,,,,,,,,,,,,,,,,,,,,,,,,,,,,,,,{16}2,
{629}4/3h[16:3],,,,,,,,,,,,,,,,,,,,,,,,,,,,,,,,,,,,,,,,,,,,,,,,,,,,,,,,,,,{619}2,,,,,,,,,,,,,,,,,,,,,,,,,,,,,,,,,,,,,,,,,,,,,,,,,,,,,,,,,,{16}8,{629}5/6h[16:3],,,,,,,,,,,,,,,,,,,,,,,,,,,,,,,,,,,,,,,,,,,,,,,,,,,,,,,,,,,{619}7,,,,,,,,,,,,,,,,,,,,,,,,,,,,,,,,,,,,,,,,,,,,,,,,,,,,,,,,,,{16}1,{629}6/2h[16:3],,,,,,,,,,,,,,,,,,,,,,,,,,,,,,,,,,,,,,,,,,,,,,,,,,,,,,,,,,,{619}1,,,,,,,,,,,,,,,,,,,,,,,,,,,,,,,,,,,,,,,,,,,,,,,,,,,,,,,,,,{16}3,{629}3/7h[16:3],,,,,,,,,,,,,,,,,,,,,,,,,,,,,,,,,,,,,,,,,,,,,,,,,,,,,,,,,,,{619}8,,,,,,,,,,,,,,,,,,,,,,,,,,,,,,,,,,,,,,,,,,,,,,,,,,,,,,,,,,{16}6,
{629}1/2,,,,,,,,,,,,,,,,,,,,,,,,,,,,,,,,,,,,,,,,,,,,,,,,,,,,,,,,,,,{619}7/8,,,,,,,,,,,,,,,,,,,,,,,,,,,,,,,,,,,,,,,,,,,,,,,,,,,,,,,,,,{16}4/5,4/5,,1b/8b,,(140.0)2-5[8:1],,,1,,,8,,
{16}7-4[8:1],,,8,,,1,,2^5[8:1],,,1,,,8,,
{16}7^4[8:1],,,8,,,1,,2V46[8:1],,,1,,,8,,
{16}7V53[8:1],,,8,,,1,,7/8,,,1/2,,,4/5,,
{16}3/6,,4/5,4/5,,,,,5/2-5[8:1],,,1,,,8,,
{16}4/7-4[8:1],,,8,,,1,,5/2^5[8:1],,,1,,,8,,
{16}4/7^4[8:1],,,8,,,1,,6/2V46[8:1],,,1,,,8,,
{16}3/7V53[8:1],,,8,,,1,,7/8,,,1/2,,,1/8,,
{16}2/7,,,,1/8,,1/8,1b/8b,,,,,2,,,1/8,
{16},,,,7,,,1/8,,,,,2/7,,1/8,,
{16},2/7,,2/7,,1/8,,,1-5[8:1],,,,,,,1^4[8:1]*^6[8:1],
{16},,,,,,,1V75[8:1]*V35[8:1],,,,,,,1w5[8:1],,
{16},,,,,,,,8-4[8:1],,,,,,,8^3[8:1]*^5[8:1],
{16},,,,,,,8V64[8:1]*V24[8:1],,,,,,,8w4[8:1],,
{16},,,,,,,,4/5,,,,,,,2/3h[16:3],
{16},,2,,,,,1/8,,1/8,,,,,,7/6h[16:3],
{16},,7,,,,,8<1[16:9],,,,,,,,,
{16},,,,,,,,8,1,8,1,,2/7,,3/6,
{16},3,4,3,6,5,6,2,4,3,7,5,6,2,1,2,
{16}7,8,7,1,{4}8w4[1:2],{1},,,
E
MASTER
(140){16}
6,6,5,5,4,4,3,3,4,4,5,5,6,6,5,5,
4,4,3,3,4,4,5,45,,,45,,
3,3,4,4,5,5,6,6,5,5,4,4,3,3,4,4,
5,5,6,6,5,5,4,
45,,,45,,,47,,56,,,25,,34,34,,36,
,6,5,7,4,8,3,45,,3,4,2,5
,1,6,45,
,6,5,7,4,8,3,3,,34,,56,,45,36,,
36,,3,3,4,2,5,45,,6,5,7,4,8,3,45,
,3,4,2,5,1,6,6,,56,,34,,45,36,,
36,,6,6,5,7,4,45,,3,4,2,5,1,6,45,
,6,5,7,4,8,3,3,,34,,56,,45,36,,
7h[8:1]/8h[8:1],,,16,,,3h[8:1]/4h[8:1],,,25,,,
1h[8:1]/2h[8:1],,,38,,,5h[8:1]/6h[8:1],,,47,,,
(84){16}78,16,25,12,38,47,
(140){12}
4,5,4,6,3,6,4,5,4,6,3,6,
4,5,4,6,3,5,36,,,45,,,
6,5,6,4,7,4,6,5,6,4,7,4,
6,5,6,4,7,5,{16}47,,,34,,,25,,,56,,,
{12}
3,4,3,5,2,5,3,4,3,5,2,5,
3,4,3,5,2,4,{16}25,25,,56,56,,47,,34,34,,,
3,4,3,4,2,5,2,5,2,4,2,4,
3,5,3,3,,5,3,5,3,4,3,3,,
6,5,6,5,7,4,7,4,7,5,7,5,
6,4,6,4,5,4,5,4,6,5,6,5,7,4,4,,
3,4,3,5,3,5,3,5,2,4,2,4,
3,4,3,4,2,5,5,,6,5,6,4,7,4,4,,
3,4,3,5,4,,45,,6,3<6[8:1],4,,4,,,,,,,
7h[8:1],,8,8,,16,,,2h[16:3],,,1,,38,,,
6h[8:1],,5,5,,3,3,4,2,3,,6,,56,,,
3h[8:1],,4,4,,25,,47,47,,,18,,,6,6,
5,7,5,6,,3,3,4,2,4,2,3,,45,,,
2h[8:1],,1,1,,38,,,7h[16:3],,,8,,16,,,
3h[8:1],,4,4,,,6,5,7,5,6,6,,45,,3,
3,4,3,6,6,5,6,3,3,5,4,5,,,6,6,
5,6,3,5,4,5,4,,45,45,,18,,27,27,,
25,,,4/7-2[8:1],,,,,,,,,
25,4/3-6[8:1],,,,,,,,,
47,,,5/2-7[8:1],,,,,,,,,
47,5/6-3[8:1],,,,,,,,,
16,,,8/3-8[8:1],,,,,,,,,
38,2/1-6[8:1],,,,,,,,,
45,45,,47,,25,,47,,25,25,,4,5,4,36,
,3,4,2,5,1,6,45,,6,5,7,4,8,3,45,
,3,4,2,5,1,6,6,,56,,34,,45,36,,
36,,6,6,5,7,4,45,,3,4,2,5,1,6,45,
,6,5,7,4,8,3,3,,34,,56,,45,36,,
36,,3,3,4,2,5,45,,6,5,7,4,8,3,45,
,3,4,2,5,1,6,6,,56,,34,,45,36,,
16,,5,4,,4,,8/3<6[8:1],,,38,,,,,
1pp3[8:1]/8qq6[8:1],,27,,,,,,
45,,,27,,8,1,,
{1}2b/7b<8[8:5],
{16},6,5,3,4,,45,,45,,7,5,6,2,4,3,8,
6,7,1,3,2,7,{32}1,2,3,4,5,6,7,8,
1w5[8:9],2,3,4,5,6,7,8,{8}1b,{1},,
{16}
6h[4:2],,,5,,,5,,3h[4:2],,,4,,,4,,
7h[4:2],,,6,,,6,,2h[4:2],,,3,,,3,,
7h[4:2],,,8,,,8,,2h[4:2],,,1,,,1,,
8h[4:2],,,1,,,1,,1,,27,27,,,,,
4,5,4,5,4,5,4,5,3,6,3,6,3,6,3,6,
4,6,4,6,4,6,4,6,3,5,3,5,3,5,3,5,
3,6,3,6,3,6,3,6,2,7,2,7,2,7,2,7,
1,8,1,8,1,8,{32}1,8,1,,
{16}1-5[8:1]/8-4[8:1],,,,1b/8b,,,,
2V41[8:1],,1-5[8:1],1,,7,6,,
7V58[8:1],,8-4[8:1],8,,2,3,,
2V41[8:1],,1-5[8:1],1,,7,6,,
7V58[8:1],,8-4[8:1],8,,2,3,,
2V48[8:1],,8v5[8:1],8,,7,6,,
7V51[8:1],,1v4[8:1],1,,2,3,,
2V48[8:1],,8v5[8:1],8,,7,6,,
7V51[8:1],,1>4[8:1],1,,,,,
5V74[8:1],,4v1[8:1],4,,2,3,,
4V25[8:1],,5v8[8:1],5,,7,6,,
5V74[8:1],,4v1[8:1],4,,2,3,,
4V25[8:1],,5v8[8:1],5,,7,6,,
5V74[8:1],,4<1[8:1],4,,2,3,,
4V25[8:1],,5>8[8:1],5,,7,6,,
5V74[8:1],,4<1[8:1],4,,2,3,,
4,,26,,3b/7b,,18,1h[16:11]/8qq5[16:7],
{4},,,{16}1,,1,1pp4[16:7],
{8},,,5,5,6,7,8,
{16}6,5,3,4,6,5,3,4,7,5,2,4,7,5,2,4-8[8:1],
,,,,,,3,3,6,6,4,4,5,5,4,4,
{24}7,6,5,2,3,4,8,7,6,1,2,3,
7,6,5,2,3,4,6,5,4,3,4,5,
{16}7,8,6,1,5,2,4,3,6,5,7,4b,,,,,
38,,4,5,,5,,1/6>3[8:1],,,16,,,,,
1pp3[8:1]/8qq6[8:1],,27,,,,,,
45,,,27,,1,8,,
{1}7b/2b>1[8:5],
{16},3,4,6,5,,45,,45,,1,3,2,8,6,7,2,
4,3,7,5,6,3,{32}5,6,7,8,1,2,3,4,
5w1[4:9],6,7,8,1,2,3,4,{1}5b,
{1}
,
E
Re:MASTER
最終更新:2026年10月03日 23:02