EASY
BASIC
(145.0){1},,,,
{2}8,8,
{2}1,1,
{1}8h[2:1],
{1}1h[2:1],
{2}8,8,
{2}7,7,
{2}6,6,
{2}5,4/5,
{4}4,4,4,,
{4}3,3,3,,
{4}2,2,2,,
{1}1-5[4:3],,
{4}1,1,,,
{4}2,2,,,
{4}3,3,,,
{4}4,4,5,5,
{4}4,4,,,
{4}5,5,,,
{4}6,6,,,
{4}7,7,7,7,
{1}7-4[4:3],,
{1}2-5[4:3],,
{4}8,8,8,,
{4}7,7,7,,
{4}6,6,6,,
{4}5,5,4,4,
{4}5,5,5,5,
{4}4,4,4,4,
{4}3,3,3,3,
{4}2,2,2,2,
{2}1/2,1/2,
{2}3/4,3/4,
{2}5/6,5/6,
{2}7/8,7/8,
{4}1,8,1b/8b,,
{4}1,1,2,2,
{4}3,3,4,4,
{4}5,5,6,6,
{1}7h[2:1],
{4}8,8,7,7,
{4}6,6,5,5,
{4}4,4,3,3,
{4}2,2,1,1,
{4}8,1,8,1,
{4}1b/8b,,1/8,1/8,
{1}1-4[4:3]/8-5[4:3],,
{1}4-1[4:3]/5-8[4:3],,
{1}2h[1:1]/7h[1:1],,
{8}1,1,1,,2,2,2,,
{8}3,3,3,,4,4,4,,
{8}5,5,5,,6,6,6,,
{8}7,7,7,,8,8,8,,
{8}7,7,7,,6,6,6,,
{8}5,5,5,,4,4,4,,
{8}3,3,3,,2,2,2,,
{8}1,1,1,,8,8,8,,
{8}7,7,7,,6,6,6,,
{4}4/5,,,4/5,
{1}4-1[4:3]/5-8[4:3],
{4},,,1/8,
{1}1-4[4:3]/8-5[4:3],
{4},,,4b,
{4}5,5,5,,
{4}6,6,5/6,,
{4}7,7,7,,
{4}8,8,1,1,
{4}8,8,8,8,
{4}1,1,1,1/8,
{4}2,2,3,3,
{4}4,4,5,5,
{4}6,6,4h[2:1]/5h[2:1],,,
E
ADVANCED
(145.0){1},,,,
{4}4,4,4,4,
{4}5,5,5,5,
{4}4,4,5,5,
{4}4/5,3/6,2/7,1b/8b,
{4}2,3/4,2,1/8,
{4}7,5/6,7,1/8,
{4}2,3/4,2,1/8,
{4}7,5/6,7,1/8,
{4}2h[4:1],1,3h[4:1],4,
{4}6h[4:1],5,7h[4:1],8,
{4}2h[4:1],4,7h[4:1],5qq1[4:3],{1},
{16},,1/8,,,1/8,,,1/8,,,,,,,,
{4}3h[4:1],4,6h[4:1],5,
{4}2h[4:1],4,7h[4:1],5,
{4}3h[4:1],2,6h[4:1],7,
{4}2,1/3,7,6/8,
{4}2h[4:1],1,7h[4:1],8,
{4}3h[4:1],1,6h[4:1],8,
{4}2h[4:1],3,7h[4:1],6,
{4}4h[4:1],3,5h[4:1],6<3[4:3],{1},
{4}2,3,4,5/6,
{4}7,6,5,3/4,
{4}1/2,7/8,1/8,,
{4}2,3,4,5/6,
{4}7,6,5,3/4,
{4}3,4,5,7/8,
{4}6,5,4,1/2,
{4}3/4,4/5,5/6,7/8,
{4}5/6,4/5,3/4,1/2,
{4}3/4,3/4,5/6,5/6,
{4}2/4,2/4,5/7,5/7,
{4}3/4,2/5,1/6,7/8,
{4}5/6,4/7,3/8,1/2,
{4}4/5,3/6,2/7,1/8,
{4}4h[4:1],3,5h[4:1],6<3[2:1],
{4},,,1b/8b,
{8}3,3,3/4,,6,6,5/6,,
{8}2,2,1/2,,7,7,7/8,,
{8}4,4,4/5,,8,8,1-4[4:1]/8-5[4:1],,
{4},,1/2,7/8,
{8}6,6,5/7,,8,8,1/7,,
{8}3,3,2/4,,1,1,2/8,,
{8}6,6,5/6,,3,3,3/4,,
{8}7,7,7/8,,2,2,1/2,,
{8}6,6,5/7,,3,3,2/4,,
{4}1-4[4:1]/8-5[4:1],,,3/6,
{2}6h[2:1],5h[2:1],
{2}4h[2:1],3h[2:1],
{4}4,5,6,7/8,
{4}5,4,3,1/2>7[4:3],{1},
{4}1/8,2/7,3/6,4b/5b,
{8}2,2,3,3,4,4,3/5,,
{8}7,7,6,6,5,5,4/6,,
{8}3,3,2,2,1,1,2/8,,
{8}6,6,7,7,8,8,1/7,,
{8}3,4,3,4,3,,2/5,,
{8}6,5,6,5,6,,4/7,,
{8}1/8,1/8,1bpp3[4:1]/8bqq6[4:1],,,,,,
{8}4,4,3,3,2,2,1/8,,
{8}5,5,6,6,7,7,1/8,,
{4}3/4,1/8,5/6,1/8,
{2}3h[2:1],4h[2:1],
{2}5h[2:1],6h[2:1],
{4}5,4,5,4,
{8}1/8,1/8,1/8,1/8,1/8,,3/6,,
{4}2,3/4,5,6/8,
{4}7,5/6,4,1/3,
{4}2,3/4,5,7/8,
{4}7,5/6,4,1/2,
{4}3h[4:1],4,6h[4:1],5,
{4}2h[4:1],4,7h[4:1],5,
{4}2h[4:1],1,7h[4:1],8,
{4}4/5,3/6,2/7,1/8,
{4}2/7,3/6,4/5,
E
EXPERT
(145.0){1}4b/5b,,,,
{4}4,3,2,1,
{4}8,7,6,5,
{4}3/4,2/5,5/6,4/7,
{4}2-4[8:1],8-6[8:1],1-5[8:1],8b,
{16}6,,6,,5/6,,,4/5,,,3,,3/4,,,,
{16}3,,3,,3/4,,,4/5,,,6,,5/6,,,,
{16}6,,6,,5/7,,,4/5,,,3,,2/4,,,,
{16}3,,3,,2/4,,,4/5,,,6,,5/7,,,,
{8}3,4,3,6,5,6,3,4,
{8}3,6,5,6,1,8,1b,,
{8}6,5,6,3,4,3,6,5,
{4}6h[4:1],5h[4:1],4h[4:1],3,
{16},,1/2,,,7/8,,,6,,5,,4,,3,,
{16}2h[4:1],,,,1,,,3/4,,,5/6,,5/6,,,,
{16}7h[4:1],,,,8,,,5/6,,,3/4,,3/4,,,,
{16}2h[4:1],,,,1,,,3/4,,,5/6,,5/6,,,,
{8}3,4,6,5,4,5,3/6,,
{16}7h[4:1],,,,8,,,1/2,,,4/5,,4/5,,,,
{16}2h[4:1],,,,1,,,7/8,,,4/5,,4/5,,,,
{4}7h[4:1],6,2h[4:1],3,
{8}6,5,3,4,7,5,2,4,
{1}6<3[2:1],
{16}2,,2,,1/2,,,5/6,,,3/4,,2/5,,,,
{16}7,,7,,7/8,,,3/4,,,5/6,,4/7,,,,
{8}1/3,,6/8,,2/7,3/6,3/6,,
{16}4h[4:1],,,,3,,,5/6,,,2,,1/2,,,,
{16}5h[4:1],,,,6,,,3/4,,,7,,7/8,,,,
{16}4h[4:1],,,,5,,,3/6,,,2/7,,2/7,,,,
{16}1h[4:1],,,,8h[4:1],,,,1,8,1,8,,,3/4,,
{16}3/4,,2,2,,,5/6,,5/6,,7,7,,,2,,
{16}1,,7,,8,,1,,1/8,,2/7,2/7,,,5/6,,
{16}5/6,,7,7,,,3/4,,3/4,,2,2,,,7,,
{16}8,,2,,1,,8,,1/8,,2/7,2/7,,,4/5,,
{8}3,3,2,2,1,8,2/7,,
{8}6,6,7,7,8,1,2/7,,
{8}4,4,5,5,1,8,2/7,,
{8}1/2,1/2,7/8,7/8,1,8,2V41[8:3]/7V58[8:3],,
{4},,2/7,1b/8b,
{8}3/4,2,3/4,5,3/4,2,3/4,5,
{8}6,7,5/6,4,5/6,7,5/6,4,
{8}3,2,3/4,5,3/4,2,3/4,5,
{8}6-1[8:1],,2b,,3,4,5/6,,
{8}7/8,1,7/8,6,7/8,1/8,1/2,,
{8}1/8,2,1/8,7,1/8,2,3/4,,
{8}5/6,7,5/6,4,5/6,7,5/6,4,
{8}3,2,3/4,5,3/4,2,3/4,5,
{8}6,7,5/6,4,5/6,7,5/6,4,
{4}3-8[8:1],7b,6h[4:1],5h[4:1],
{4}4h[4:1],2,5h[4:1],7,
{4}3h[4:1],1,6h[4:1],8,
{4}2h[4:1],1h[4:1],8h[4:1],7,
{8}1,8,1,8,1-5[8:1],,8-4[8:1],,
{1}3>6[2:1],
{4}7h[4:1],5h[4:1],4h[4:1],2,
{8}1/2,3,1/2,8,1/2,3,1/2,8,
{8}7,6,7/8,1,7/8,6,7/8,1,
{8}2,3,1/2,8,1/2,3,1/2,8,
{8}7,6,7/8,1,7/8,6,7/8,1,
{8}2,3,1/2,8,1/2,1/8,7/8,,
{8}4/5,2,4/5,7,4/5,3/6,2/7,,
{16}1,8,1,8,1b,,,,,,4/5,,,,1/8,,
{8}2,3,1/2,8,1/2,3,1/2,8,
{8}7,6,7/8,1,7/8,6,7/8,,
{4}2-5[8:1],7-4[8:1],3-8[8:1],7b,
{16}6h[16:3],,,5h[16:3],,,4h[4:1],,,,3,,2/5,,,,
{16}3h[16:3],,,4h[16:3],,,5h[4:1],,,,6,,4/7,,,,
{4}2h[4:1],1h[4:1],8h[4:1],7h[4:1],
{16}8,,1/2,,8,8,,1pp2[16:3]/8qq7[16:3],,,,,,,,,
{16}7,,7,,7/8,,,1/6,,,2,,1/2,,,,
{16}2,,2,,1/2,,,3/8,,,7,,7/8,,,,
{16}7,,7,,6/8,,,4/5,,,2,,1/3,,,,
{16}2,,2,,1/3,,,4/5,,,7,,6/8,,,,
{8}2,1,3/8,7,8,1/6,2,1,
{8}3/8,7,8,1/6,2,1,8b,1b,
{8}7,8,1/6,2,1,3/8,7,8,
{4}7h[4:1],6h[4:1],5h[4:1],4h[4:1],
{8}3h[4:1],,2h[4:1],,1,2,3,4,
E
MASTER
(145){1}4qq1[1:2]/
5pp8[1:2],,,,{8}45,3,45,6,45,3,
45,6,45,2,45,7,45,2,45,7,45,1,45,8,45,1,45,8,45,,
46,,25,,3b/7b,,{16}78,,16,,3,4,,4,,4,,35,4,6,2,,
12,,38,,6,5,,5,,5,,46,5,3,7,,78,,16,,3,4,,4,,4,,35,4,6,2,,
45,,68,,45,,13,,4-7[8:1]/5-2[8:1],,36,,,,,,5,4,6,5,47,,
4,5,3,4,25,,5,4,6,5,47,,4,5,3,4,25,,5s1[8:1],4,6,5,7,,,,
4,5,3,4,25,,5,4,6,5,47,,4,5,3,4,{8}2-5[8:1]/5,,
7-4[8:1],,1b,2b,3b,4b,,{16}56,47,,34,25,,4,5,3,6,2,
5,4,,2h[4:1]/4,,,,8,,,56,56,,57,,48,,56,,5/7h[4:1],,,,
1,,,34,34,,24,,15,,34,,2h[4:1]/4,,,,8,,,56,56,,57,,48,,
56,,18,,27,,36,,45,45,,57,,24,24,,36,,2h[4:1]/4,,
6,,8,,45,45,,78,,15,,34,34,,5/7h[4:1],,3,,1,,5,4,5,,
36,36,,45,45,,3h[4:1]/5,,7,,1,,4,5,4,,27,27,,45,45,,
18,,27,,36,,45,45,,24,,57,57,,36,,34,,25,,7,8,,8,,8,,
17,8,2,6,,56,,47,,2,1,,1,,1,,28,1,7,3,,34,,25,,7,8,,8,,8,,
17,8,2,6,,18,,24,,18,,57,,18,,27,,36,,4-8[8:1]/5,,45,,
,,6,6,5,7h[8:1],,3,4,2,5-1[8:1],,5,,4,,,,3,4,2,6,5,7,4,5,
4-8[8:1],,4,,5-1[8:1],,5,,4p2[4:1],,4,,5,,,,,,6,,6,,57,,3,,
24,,45,,8,8b,,,13,,2b,,78,7b,,34,3>8[8:1]/4<7[8:1],,
34,,,,,,6,,57,,3,,24,,45,,45,,1,1b,,,68,,7b,,12,2b,,56,
5>2[8:1]/6<1[8:1],,56,,,,,,3,,24,,6,,57,,45,,45,,8,8b,,,
45,,3-8[8:1],,3,,6pp1[4:1],,6,,
4,,3,,2,,45,,6-1[8:1],,6,,3qq8[4:1]
,,3,,5,,6,,7,,45,,3-8[8:1],,3,,
6pp1[4:1],,6,,4,,3,,2,,45,,6,,45,,3,,
45,,18,,27,,3-7[4:1]/6-2[4:1]{8},,,,,,
1h[16:3]/8h[16:3],,18,,1-5[8:1]/8,3,1/8-6[8:1],7,
1-5[8:1]/8,3,1/8-4[8:1],6,1-3[8:1]/8,2,1/8-4[8:1],
6,1-5[8:1]/8,3,1/8-6[8:1],7,1-5[8:1]/8,3,1/8-4[8:1],
6,1-3[8:1]/8,2,1/8-4[8:1],6,18,,2b/7b,,{16}45,,
6,3,7,2,8,1,{8}7-5[8:1]/8,6,1-5[8:1]/7,3,1/7-3[8:1],
6,78,,1/2-4[8:1],3,2/8-4[8:1],6,2-6[8:1]/8,3,12,,
1/8-4[8:1],6,1-3[8:1]/8,2,1/8-4[8:1],6,1-5[8:1]/8,3,
1/8-6[8:1],7,1-5[8:1]/8,3,1/8-4[8:1],6,1-3[8:1]/8,2,
1/8-4[8:1],6,1-5[8:1]/8,3,1/8-6[8:1],7,1-5[8:1]/8,3,
18,,2b/7b,{16},5,5h[4:1],,,,6h[4:1],,,,5h[16:3],,,4,
4h[4:1],,,,3h[4:1],,,,4h[4:1],,,,5h[16:3],,,7,7h[4:1],,,,
5,,5,,4,,4,,2,,2,,4,,4,,5,,,,36,,,,2h[8:1]/4h[8:1],,,,
6h[8:1]/8h[8:1],,,,1h[8:1]/3h[8:1],,,,5h[8:1]/7h[8:1]
,,,,2/4w8[2:1]{1},{12}6,5,7,3,4,2,7,8,6,2,1,3,{8}
2/7<4[8:1],8,1-5[8:1]/7,3,1/8-4[8:1],6,2>5[8:1]/8,
1,2/8-4[8:1],6,1-5[8:1]/8,3,1/7<4[8:1],8,1-5[8:1]/7
,3,1/8-4[8:1],6,2>5[8:1]/8,1,2/8-4[8:1],6,1-5[8:1]/
8,3,1/7<4[8:1],8,1-5[8:1]/7,3,17,6,27,,7<4[8:1]/8,6
,7/8-4[8:1],2,7-3[8:1]/8,6,78,,1/2>5[8:1],3,
1-5[8:1]/2,7,1/2-6[8:1],3,12,,{16}18,18,18,18,
2b/7b,,,,{8}2>5[8:1]/7,8,2/8-4[8:1],6,1-5[8:1]/8,3,
1/7<4[8:1],8,1-5[8:1]/7,3,1/8-4[8:1],6,2>5[8:1]/8,
1,2/8-4[8:1],6,18,3,18,,{12}34,34,34,56,56,56,{16}
4,5,4,5,36,,,,78,,,78,,,16,,,,34,,15,,,,12,,,12,,,38,,,,56,,
48,,,,5,,,,5,,,,4,,,,4,,,,5,,5,,{32}4,5,4,,{16},36,,45,45,,
2b/7b,,,,12,,38,,6,5,,5,,5,,46,5,3,7,,78,,16,,3,4,,4,,4,,
35,4,6,2,,12,,38,,6,5,,5,,5,,46,5,3,7,,45,,13,,45,,68,,
4-7[8:1]/5-2[8:1],,36,,,,,,4,5,3,4,25,,5,4,6,5,47,,
4,5,3,4,25,,5,4,6,5,47,,4z8[8:1],5,3,4,2,,,,5,4,6,5,47,,
4,5,3,4,25,,5,4,6,5,{8}4/7-3[8:1],,8-4[8:1],,1-5[8:1],,
2-6[8:1],,3-7[8:1],,4-8[8:1],,1b,2b,3b,4b,{1},,
E
Re:MASTER
最終更新:2026年10月01日 21:19