EASY
BASIC
ADVANCED
EXPERT
MASTER
(191.97)
{4}6h[4:1],5,{12}45,,45,,,3,,,3,{4}4,6,57,3h[4:1],4,
{12}45,,45,,,6,,,6,{4}5,3,24,6h[4:1],5,{12}45,,45,,,
3,,,3,{4}4,6,57,3h[4:1],4,4/5h[1:1],,6,6,6,4b/5b,
3<6[8:1]/4,8,5/6>3[8:1],1,3<6[8:1]/4,8,7<4[8:1]/
8,3,3<6[8:1]/4,8,5/6>3[8:1],1,7-4[8:1]/8-3[8:1],78,
25,47,6>3[8:1]/5,1,4/3<6[8:1],8,6>3[8:1]/5,1,
2>5[8:1]/1,6,6>3[8:1]/5,1,4/3<6[8:1],8,2-5[8:1]/
1-6[8:1],12,3b/8b,,{12}45,,6,5,,3,4,,6,45,,,
{4}4>1[8:1]/6,6,1>4[8:1]/5,5,3>8[8:1]/6,6,5/
8>3[8:1],5,3/5-8[8:1],3,4/8-5[8:1],4,3/6-8[8:1],3,
4/5-1[8:1],4,2-7[8:1]/6,6,5/7-2[8:1],5,3b<6[8:1]/7,
7,6b>3[8:1]/8,8,3/7>2[8:1],3,2q6[8:1]/4,4,36,36,
{12}4,5,4,5,,,{12}3/6>3[8:1],,1,1,,,2<7[8:1]/7,,5,5,,,3/
6>3[8:1],,1,1,,,2<7[8:1]/7,,5,5,,,5/6<1[8:1],,4,4,,,
3>8[8:1]/4,,5,5,,,7<4[8:1]/8,,1,{4}
1pp4[8:3],,,{12}6/3<6[8:1],,8,8,,,
7>2[8:1]/2,,4,4,,,6/3<6[8:1],,8,8,,,7>2[8:1]/2,,4,4,,,
4/3>8[8:1],,5,5,,,6<1[8:1]/5,,4,4,,,2>5[8:1]/1,,8,{4}
8qq5[8:3],,,
2>6[8:3],7,8,1,5<1[8:3],2,3,4,8>4[8:3],5,6,7,4,58,
16,27,7<3[8:3],2,1,8,4>8[8:3],7,6,5,5<8[4:1],
8>3[4:1],3<6[4:1],6<1[4:1],1,4,{12}2b/7b,,2b/7b,,,,
36,,1>4[8:1],8<5[8:1],,1,8,,1-5[8:1],8-4[8:1],,
1<2[8:3],8,,1,,,8,,,8<5[8:1],1>4[8:1],,8,1,,8-4[8:1],
1-5[8:1],,8>7[8:3],1,,8,,,1,,,,3>8[8:1]/7<4[8:1],,,37,,,
45,,,36,,8<5[8:1],1>4[8:1],,8,1,,8-4[8:1],1-5[8:1],,
8>7[8:3],1,,8,,,1,,,1>4[8:1],8<5[8:1],,1,8,,1-5[8:1],
8-4[8:1],,1<2[8:3],8,,1,,,8,,,,1-4[8:1]/8-5[8:1],,,,,,4b/
5b,,6,47,,2-6[8:1],1-5[8:1],,2,1,,1-3[8:1],8-4[8:1],,
1<2[8:3],8,,1,,,8,,,7-3[8:1],8-4[8:1],,7,8,,8-6[8:1],
1-5[8:1],,8>7[8:3],1,,8,,,1,,,,2>5[8:1]/6p1[8:1],,,26,,,
37,,,{4}1-5[8:1]/8,12,2/3-7[8:1],34,4/5-1[8:1],56,
6/7-3[8:1],78,1/8-4[8:1],78,6-2[8:1]/7,56,4-8[8:1]/
5,34,2-6[8:1]/3,12,{1}2b/
7bqq4[1:1],{2},{12}8,,8,1,,,{1}2b/
7bp3[2:1],{12}3,,3,4,,1,8-4[8:1],,,1b,,,
1/7-4[8:1],,3,3,,,2/6-1[8:1],,4,4,,,2-5[8:1]/8,,6,6,,,
3-8[8:1]/7,,5,5,,,1/7-4[8:1],,3,3,,,2/6-1[8:1],,4,4,,,
2-5[8:1]/8,,6,6,,,3-8[8:1]/7,,5,5,,,1/7-4[8:1],,4,3,,,
2/6-1[8:1],,4,3,,,2-5[8:1]/8,,5,6,,,3-8[8:1]/7,,5,6,,,
{4}7-4[8:1],3-8[8:1]/7,3/6-1[8:1],2-5[8:1]/6,2/
8-5[8:1],4>5[8:3]/8,4b/5b,,
4/7<4[8:1],2,3>8[8:1]/8,6,4/7<4[8:1],2,3>8[8:1]/
8,6,7-2[8:1],3-6[8:1],5w1[4:1],,,45,28,3p6[4:1]/
7>2[4:1],,,17,2qq2[2:1]/6qq6[2:1],,,,45,{12}3,4,3,6,5,6,2,4,3,7,5,
6,{4}4-1[8:1]/5-8[8:1],45,{12}45,,4/5h[12:10],{4},
6,6,6,4b/5b,
{12}36,,8-4[8:1],1-3[8:1],,8,1,,8-6[8:1],1-5[8:1],,
8>7[8:3],1,,8,,,1,,,1-5[8:1],8-6[8:1],,1,8,,1-3[8:1],
8-4[8:1],,1<2[8:3],8,,1,,,8,,,,{4}2p5[8:1]/6<1[8:1],
26,45,{12}36,,1-5[8:1],8-6[8:1],,1,8,,1-3[8:1],
8-4[8:1],,1<2[8:3],8,,1,,,8,,,8-4[8:1],1-3[8:1],,8,1,,
8-6[8:1],1-5[8:1],,8>7[8:3],1,,8,,,1,,,,{4}1-4[8:1]/
8-5[8:1],,{12}4b/5b,,3,25,,7-5[8:1],8-4[8:1],,7,8,,
8-6[8:1],1-5[8:1],,8>7[8:3],1,,8,,,1,,,2-4[8:1],
1-5[8:1],,2,1,,1-3[8:1],8-4[8:1],,1<2[8:3],8,,1,,,8,,,,{4}
4v1[8:1]/6v1[8:1],46,37,{1}1b/5b,,,{4}5h[4:3],,6,6,
2b<4[8:5]/7b,,,,,,,45,2b/7b>5[8:5],,,,{12}4,,4,5,,5,4,,4,
36,,,
{4}2b-5[8:1]/6b,28,3-8[8:1]/5,37,3/7-4[8:1],17,
4/6-1[8:1],26,2-5[8:1]/6,28,3-8[8:1]/5,3/7-4[8:1],
1-5[8:1]/7,1/8-4[8:1],18,36,2-5[8:1]/5,2/7-4[8:1],
3-8[8:1]/7,3/6-1[8:1],2-7[8:1]/6,2/5-8[8:1],
1-4[8:1]/5,1/6-3[8:1],2-5[8:1]/6,2/7-4[8:1],
3-8[8:1]/7,3/6-1[8:1],2-7[8:1]/6,2/5<4[8:3],45,,
{1}1h[1:1],4h[12:23],5h[12:11],,,E
Re:MASTER
- MASTER譜面のSLIDEの速度の修正、HOLDの修正、BPMの修正を行いました。 -- けもがみ (2026-09-11 22:36:48)
最終更新:2026年10月03日 22:29