アットウィキロゴ

Danza zandA

アーティスト 福山光晴

BPM EASY BASIC ADVANCED EXPERT MASTER Re:MASTER
129 2 5 8 10+ 13 13+

EXPERT MASTER Re:MASTER
譜面制作者 Techno Kitchen Jack Tecnno Kitchen

EASY


BASIC


ADVANCED


EXPERT


MASTER

(129){1},{16}
45,,,18,,,3<6[8:1]/6,,,,,,7,8,1,2,
,34,,,56,,,18,,,,,5,,1,,
48,,3,7,1p8[4:1],,,,8<1[4:1],,,,,,,,
7,8,1,2,,45,,27,,,,,12,,78,,
45,,,18,,,3/6>3[8:1],,,,,,2,1,8,7,
,56,,,34,,,18,,,,,4,,8,,
15,,6,2,8<5[8:3],,,6>3[8:3],,,4>1[8:3],,,2<7[8:3],,,
8<5[8:3],,,6>3[8:3],,,4>1[8:3],,,2<7[8:3],,,6b,,,,
5<4[1:1],,,5p4[16:13],{4},,,
{1},
{16}6,5,,3,4,,2,1,,7,8,,2b/7b,,,,

34,,25,,,56,,47,,36,,5,4,,,,
56,,47,,,34,,25,,36,,1,8,,,,
12,,38,,,78,,16,,27,,3,6p3[4:1],,,,
1b,,,8b,,,2b/7b,,,,,,,,,,

3h[16:3]/5,,,4,3,,25,,4/6h[16:3],,,5,6,,47,,
3h[16:3]/5,,,4,2,,15,,4/6h[16:3],,,5,7,,48,,
3h[16:3]/5,,,2,1,,38,,4/6h[16:3],,,7,8,,16,,
,,8,1,,27,,,6,5,4,3,,8b,,,
2h[16:3],,,1,2,,38,,7h[16:3],,,8,7,,16,,
2h[16:3],,,1,3,,48,,7h[16:3],,,8,6,,15,,
4h[8:3],,,3q6[8:3],,,7h[8:5],,,,,,,,,,

5,,47,,,4,,25,,36,,4,5,,78,,
3,,25,,,6,,47,,36,,8,1,,45,,
2,,38,,,7,,16,,27,,4,5,,12,,
8,,16,,,1,,38,,45,,1,8,,27,,
4q5[4:1],,,,,,6q3[8:1],,,,2,1,8,,27,,
5p4[4:1],,,,,,3p6[8:1],,,,7,8,1,,27,,
3,4,,6,5,,1,8,,,12,,34,,56,,
7,8,,2,1,,4,5,,,78,,56,,34,,
5v4[8:1],,5,,,3p6[8:1],,3,,,7>6[4:1],,7,,,,
,,,,{12}7,8,1,{16}2b/7-3[8:1],,,,1-5[8:1]/7b,,,,

1b/5b,,,,37,,37,2-6[8:1]/6,15,,,,,,8,,
48,,,,26,,26,3/7-3[8:1],48,,,,,,1,,
15,,,,37,,37,2-5[8:1]/6-1[8:1],15,,,,,,48,,
15,,,27,,4h[16:3],5h[8:1],,,,36,,18,,,,
67,,,23,,1,8,,27,,3h[8:1],,1h[8:1],,7h[8:1],,
5h[4:1],,,,1,,28,37,46,,,15,,,48,,
36,,,12,,78,,1,8,,27,,3/6q3[8:1],,45,,
2,1,8,7,,,45,,2-6[8:1]/7b,,,,2b/8-4[8:1],,,,
4b/8b,,,,26,,26,3-7[8:1]/7,48,,,,,,5,,
15,,,,37,,37,2/6-2[8:1],15,,,,,,4,,
48,,,,26,,26,3-8[8:1]/7-4[8:1],48,,,,,,15,,
48,,,,27,,,,45,,1,8,,27,,,

45,,3,24,,1,28,,,,67,,23,,,,
45,,6,57,,8,17,,,,23,,18,,67,,
4q5[4:1]/5,,,,4/5<4[4:1],,,,,,,,,,45,,
27,,,2,1,,38,,45,,,7,8,,16,,
2<7[8:1]/6>3[8:1],,,,2b/6b,,,,37,48,15,26,,1,8,2h[4:1],
,,,1,,,38,,7h[16:3],,,8,,,16,,
4h[16:3],,,5,,,36,,18,,,,{32}1,2,3,4,5,6,7,8,

{16}
1b,,,,34,,,5-8[8:1]/6-3[8:1],,,,56,,,,,
,27,18,,,56,,3-6[8:1]/4-1[8:1],,,,34,,,,,
67,,,,23,,,1-5[8:1]/4-8[8:1],,,,14,,,,,
,36,45,,,67,,5-1[8:1]/8-4[8:1],,,,58,,,,,
1-3[8:1]/4-8[8:1],,,,14,,,1-5[8:1]/4-2[8:1],,,,14,,,,,
,8-4[8:1],5-7[16:1],,,58,,5-1[8:1]/8-6[8:1],,,,58,,,,,
1-6[8:1]/8-3[8:1],,,,18,,,4h[16:5]/5h[16:5],,,,,,3,4,3,6,5,
6,2,4,2,7,5,7,1,8,,,{48}1b/8b,2b/7b,3b/6b,4b/5b,
{1},,
E

Re:MASTER

(129){1},,
{16}5h[8:1]/7h[8:1],,,2h[8:1]/4h[8:1],,,3<6[8:1]/6,,,,,,7,8,1,2,
,5h[8:1]/7h[8:1],,,2h[8:1]/4h[8:1],,,3h[16:3]/6h[16:3],,,,,8b,,,,
2h[16:3],,,4,3,,3,,6,5,6,,1b/8b,,,,
2/4,,2h[8:1]/4h[8:1],,,5/7,,3h[16:3]/6h[16:3],,,,,4b/5b,,,,

{16}2h[8:1]/4h[8:1],,,5h[8:1]/7h[8:1],,,3/6>3[8:1],,,,,,2,1,8,7,
,2h[8:1]/4h[8:1],,,5h[8:1]/7h[8:1],,,3h[16:3]/6h[16:3],,,,,1b,,,,
4/5,4/5<1[4:1],,,8>4[4:1],,,3<7[4:1],,,6<2[4:1],,,1>5[4:1],,,
4<8[4:1],,,7>3[4:1],,,2>5[16:3],,,5,,,8b,,,,

{32}2<7[4:9]/7,,,,,,2b/7b,,,,,,,7,6,5,4h[8:1],,,,,,,,2,3,4,5h[32:5],,,,,
,,,,6,5,4,3,,,,,4,,4h[16:9],,,,,,,,,,,,,,,,,,

{16},,4,4,,5,,6,6,,5,,1b/8b,,,,
2/5,,2/5,,4,3,,3,4,3,,3,4,,5,,
4/7,,4/7,,5,6,,6,5,6,,6,5,,4,,
2/5,,2/5,,4,3,,3,4,3,,3,4h[4:1],,,,

{16}2b,,,5b/7b,,,2h[4:1]/7h[4:1],,,,,,4/5,,,,
1>5[8:1]/8,,,7,7,,8,,1<5[8:1],,,3,3,,2,,
1q5[8:1],,,7,7,,8,,1p5[8:1],,,3,3,,2,,
1-5[8:1],,,7,7,,8,,1-5[8:1],,,3,3,,2,,

{16}1,,5,4,,2/7,,3,4,4,4,3h[8:1],,8b,,,
1/8p4[8:1],,,2,2,,1,,8q4[8:1],,,6,6,,7,,
8-4[8:1],,,2,2,,1,,8w4[8:1],,,,8b,,,,
1/3,,,5/7>5[16:5],,,3h[8:3],,,,,,,,,,

{16}1>1[8:3],,4q1[4:1],,,,,,,,,,2,2,,4,
3,,3/4,,6,,5/6,,3,,3/4,,5,4,,,
8<8[8:3],,5p8[4:1],,,,,,,,,,7,7,,5,

{8}6,5/6,3,3/4,6,5/6,4h[4:1],,
7>2[8:1],,5/7,5<4[4:1],,,,,
2<7[8:1],,2/4,4>5[4:1],,,,,

{16}1,1h[16:11],,,7,,,3,,,6,,6,,1/5,,
4/8,4h[16:11]/8,,,6,,,2,,,5,,5,,4/8,,
1/5,,3/4,,,4/8,,5/6,,,4/5<4[4:1],,4/5,,,,

{12},,,1,1,1,1/8-3[8:1],,,1-6[8:1]/8,,,

{16}1b/8b,,,,8,,4/8,3/7>4[16:3],2/6h[8:3],,,7,,,,,
7/8,,,,1/5,,1/5,2<5[16:3]/6,3h[8:3]/7,,,2,,,,,
1/2,,,,4/8,,4/8,3/7>4[16:3],2/6h[8:3],,,7,,,,,
7/8,,3,4,,6,5,,2,,3/4,,7,,5/6,,
2b/7b,,,8h[8:1],,1,8,,2/7,,3h[8:1],,1h[8:1],,8h[8:1],,
6h[4:1],,,,3,,5,4,5,,,2/7,,,4/5<4[8:3],,

{8}4/5,,,,,,3p6[8:1],4/5,

{16}7,8,1,2,,4/5,,,1b-6[8:1]/8b,,,,1b/8b-3[8:1],,,,
1b/8b,,,,1,,1/5,2<4[16:3]/6,3h[8:3]/7,,,2,,,,,
1/2,,,,4/8,,4/8,3/7>5[16:3],2/6h[8:3],,,7,,,,,
7/8,,,,1/5,,1/5,2<4[16:3]/6,3h[8:3]/7,,,2,,,,,
1/2,,,,2/7,,3/6q3[8:1],,4/5,,2,2,,1/8,,,

{32}3b/5b,,,,1,,4b/6b,,,,8,,3b/5b,,,,1,2,3,4,,,,,8,7,6,5,,,,,

{16}2b/7b,,1/2,5b/8b,,7/8,1b/4b,,,,2/3,,1/8,,6/7,,

{8}4/5p4[4:1],,4>5[4:1]/5,,,,,4/5,

{16}2/7,,3,3,,5/6,,2/3,,8,1,7,2,6,3,5,
4,,,,2b/7b,,,,3,4,3,6h[8:1],,4,5,4>5[16:21],
,,,,,,,,7,,,6,,,5,,

{32},,,,,,,,,,,,,,,,,,,,,,,,1,2,3,4,5,6,7,8,

{16}1b,,,,3/6,,,2-6[8:1]/7-1[8:1],,,,2/7,,,,,
4>1[8:1]/8<5[8:1],1/5,,,4/8,,,4<7[8:1]/8>3[8:1],,,,4/8,,,,,
3-7[8:1]/6-4[8:1],,,,3/6,,,3-7[8:1]/8-2[8:1],,,,3/8,,,,,
4>1[8:1]/8<5[8:1],1/5,,,4/8,,,4<7[8:1]/8>3[8:1],,,,4/8,,,,,
3-5[8:1]/6-2[8:1],,,,3/6,,,1-7[8:1]/6-2[8:1],,,,1/6,,,,,
4>1[8:1]/8<5[8:1],1/5,,,4b/8b,,,4<7[8:1]/8>3[8:1],,,,4b/8b,,,,,
2>5[8:1]/5<8[8:1],,,,2/5>1[8:1]*p8[8:1],,,5b,,,,,,6,2,5,

{32}1,,6,,2,,7,,3,,8,,4,,1,,5,,2h[32:7],,6h[32:5],,,,,,1b/5b,4b/8b,3b/7b,2b/6b,,,

{1},
{1},
{1},
E

名前:
コメント:

タグ:

+ タグ編集
  • タグ:
最終更新:2026年10月04日 21:11