アットウィキロゴ

エテルニタス・ルドロジー

アーティスト IRON ATTACK!

BPM EASY BASIC ADVANCED EXPERT MASTER Re:MASTER
178 2 5 8 11 13+ -

EXPERT MASTER Re:MASTER
譜面制作者 Jack 某S氏 -

EASY


BASIC

(178.0){1}1,
{1}1,
{1}8-4[4:3],,
{2}5,5,
{1}5/6,
{2}4,4,
{1}3/4,
{2}2,2,
{2}1,1,
{2}8,8,
{1}7h[2:1],
{2}7,7,
{2}8,8,
{1}1/8,
{1}1-4[4:3]/8-5[4:3],,
{2}1,1,
{4}2,2,2,,
{2}3,3,
{4}4,4,4,,
{2}5,5,
{4}6,6,6,,
{2}7,7,
{1}1/8,
{1}8-4[4:3],,
{1}1-5[4:3],,
{2}5,5,
{2}6,6,
{2}7,7,
{1}1b/8b,
{4}1,1,1,,
{4}2,2,2,,
{4}3,3,3,,
{4}4,4,4/5,,
{4}5,5,5,,
{4}6,6,6,,
{4}7,7,7,,
{1}1h[2:1]/8h[2:1],
{2}8,8,
{4}7,7,7,,
{2}6,6,
{4}5,4,5,,
{2}4,4,
{4}3,3,3,,
{2}2,2,
{2}1/8,1/8,
{1}7-4[4:3],,
{1}2-5[4:3],,
{4}5,5,5,,
{4}6,6,6,,
{4}7,7,7,,
{1}1b/8b,
{2}1,1,
{2}1/2,1/2,
{2}3,3,
{2}3/4,3/4,
{2}5,5,
{2}5/6,5/6,
{2}7,7,
{2}7/8,7/8,
{4}8,8,8,,
{4}7,7,7,,
{4}6,6,5,5,
{4}4,4,4/5,,
{4}3,3,3,,
{4}2,2,2,,
{4}1,8,1,,
{1}1b/8b,
{1}1-5[4:3],,
{1}8-4[4:3],,
{4}1,1,1,,
{4}2,2,2,,
{4}3,3,4,4,
{4}5,5,4/5,,
{4}5,5,5,,
{4}6,6,6,,
{4}7,7,7,,
{1}1h[2:1]/8h[2:1],
{2}8,8,
{2}7,7,
{4}6,6,5,5,
{4}4,4,4/5,,
{1}5/6,
{1}3/4,
{1}4h[2:1]/5h[2:1],
{1}3/6,
{1}7-3[4:3],,
{2}1,1,
{2}8,8,
{2}1/2,1/2,
{2}7/8,7/8,
{4}2,1,2,,
{4}7,8,7,,
{4}2h[4:3]/7h[4:3],,,,
E

ADVANCED

(178.0){4}1,2,3/4,,
{4}8,7,5/6,,
{4}1,2,{2}4/3p6[4:3],{1},
{4}8,7,5/6,,
{4}1,2,3/4,,
{4}8,7,{2}5/6q3[4:3],{1},
{4}2,2,1,1,
{4}2,2,1/2,,
{4}7,7,8,8,
{4}7,7,7/8,,
{4}3,3,4,4,
{4}3,3,3/4,,
{1}4-1[2:1]/5-8[2:1],
{1}1pp4[4:5]/8qq5[4:5],,
{4}1,1,2,2,
{4}3,3,4,4,
{4}5,5,6,6,
{4}7,7,1/8,,
{4}8,8,7,7,
{4}6,6,5,5,
{4}4,4,3,3,
{4}2,2,1/8,,
{2}3h[2:1],4,
{2}6h[2:1],5,
{2}2h[2:1],3,
{2}7h[2:1],6,
{2}2h[2:1],1,
{2}7h[2:1],8,
{2}3h[2:1],2,
{2}6h[2:1],7,
{4}4,3,1/2,,
{4}5,6,7/8,,
{4}4,3,{2}1/2q7[4:3],{1},
{4}5,6,7/8,,
{4}4,3,1/2,,
{4}5,6,{2}8/7p2[4:3],{1},
{4}1,1,2,2,
{4}3,3,3/4,,
{4}8,8,7,7,
{4}6,6,5/6,,
{4}1,1,2,2,
{4}3,3,3/4,,
{4}8,8,7,7,
{4}5/6,5/6,4/7,,
{2}2h[2:1],1,
{2}7h[2:1],8,
{2}3h[2:1],2,
{2}6h[2:1],7,
{2}3h[2:1],4,
{2}6h[2:1],5,
{2}2h[2:1],3,
{2}7h[2:1],6,
{4}1,2,3,4,
{4}5,6,5/7,,
{4}8,7,6,5,
{4}4,3,2/4,,
{4}4,3,2,1,
{4}8,7,6/8,,
{4}5,6,7,8,
{4}1,2,1/3,,
{4}3,3/4,6,5/6,
{4}3,3/4,2/5,,
{4}6,5/6,3,3/4,
{4}6,5/6,4/7,,
{4}2,1/2,7,7/8,
{4}2,1/2,3/8,,
{4}7,7/8,2,1/2,
{4}7,7/8,1b/6b,,
{2}3h[2:1],5h[2:1],
{4}4,4,4,,
{2}6h[2:1],4h[2:1],
{4}5,5,5,,
{2}2h[2:1],4h[2:1],
{4}3,3,3,,
{2}7h[2:1],5h[2:1],
{4}6,6,6,,
{4}8,8,7,7,
{4}7/8,1/6,2/5,3/4,
{4}1,1,2,2,
{4}1/2,3/8,4/7,5/6,
{4}5,5,6,6,
{4}5/6,4/7,3/8,1/2,
{4}4,4,3,3,
{4}3/4,2/5,1/6,,
{4}2/5,4,5,6,
{4}4/7,5,4,3,
{4}2/5,3,4,5-2[2:1]/6-1[2:1],{1},
{4}2/7,1,8,1/8,
{4}2/7,2/7,,,
{4}1,2,3,4,
{4}5,6,7,8,
{4}8,7,6,5,
{4}4,3,2,1,
{4}1/8,1/8,2/7,2/7,
{4}3/6,3/6,4/5,4/5,
{4}4,5,4/5,2b/7b,
E

EXPERT

(178.0){1}3h[8:7]/4h[8:7],
{1}4h[8:7]/5h[8:7],
{1}5h[8:7]/6h[8:7],
{4}4^1[4:1]/5^8[4:1],,,2b/7b,
{8}3,3,4,,3/5,,2/6,,
{8}6,6,5,,4/6,,3/7,,
{8}4,4,5,,3/6,,{4}7/2qq5[4:3],{1},
{8}5/6,,4/7,,6,6,5,,
{8}3/4,,2/5,,3,3,4,,
{4}6h[4:1],5h[4:1],4h[4:1],3>6[2:1],
{4},,,1/8,
{8}3/4,,2/5,,3,3,4,,
{8}5/6,,4/7,,6,6,5,,
{1}1h[8:7]/8h[8:7],
{2}8/1-5[8:1],7-3[8:1],
{1}2<5[2:1],
{4}3h[4:1],4,6h[4:1],5,
{4}7,6,5,3/4,
{4}2,1/2,7,7/8,
{4}1,2-5[4:1]/8-5[4:1],,,
{4}3,2/4,6,5/7,
{4}4^1[4:1]*^7[4:1],,,7/8,
{4}1h[4:1],2h[4:1],3h[4:1],4>5[2:1],
{4},,,1/8,
{8}2/4,,7/8,,5,4,5,,
{8}5/7,,1/2,,4,5,4,,
{8}2/4,,7/8,,5,4,5,,
{8}5/7,,1/2,1-6[16:3]/2-5[16:3],,,,,
{8}1/8,,3/4,3/4,,2/6,2/6,,
{8}1/8,,5/6,5/6,,3/7,3/7,,
{4}1/8,4qq2[4:1]/5pp7[4:1],,,
{4}1/8,2/7,3/6,4/5,
{8}3,3,4,,5/7,,2/4,,
{8}6,6,5,,2/4,,5/7,,
{8}4,4,5,,2/4,,{4}5/7pp4[4:3],{1},
{8}6,6,5,,2/4,,5/7,,
{8}3,3,4,,5/7,,2/4,,
{8}5,5,4,,5/7,,{4}4/2qq5[4:3],{1},
{4}6h[4:1],5,2h[4:1],3,
{4}7,6,5,3/4,
{4}7,7/8,2,1/2,
{4}8,1-4[4:1]/7-4[4:1],,,
{4}6,5/7,3,2/4,
{4}5^2[4:1]*^8[4:1],,,1/2,
{4}8h[4:1],7h[4:1],6h[4:1],5<4[2:1],
{4},,,1/8,
{8}5/7,,1/2,,4,5,4,,
{8}2/4,,7/8,,5,4,5,,
{8}5/7,,1/2,,4,5,4,,
{8}2/4,,7/8,7-4[16:3]/8-3[16:3],,,,,
{8}1/8,,5/6,5/6,,3/7,3/7,,
{8}1/8,,3/4,3/4,,2/6,2/6,,
{4}1/8,1^4[4:1]/8^5[4:1],,,
{16}1/8,,,1/8,,,1b/8b,,,,,,,,,,
{4}2h[4:1],1,7h[4:1],6,
{4}3h[4:1],4-8[4:1],,,
{8}2,2,8,,7,7,1-5[4:1],,
{8},,,7,7,,3/4,,
{4}7h[4:1],8,2h[4:1],3,
{4}6h[4:1],5-1[4:1],,,
{8}7,7,1,,2,2,8-4[4:1],,
{8},,,2,2,,5/6,,
{8}2,,1/3,,6,6,5,,
{8}7,,6/8,,3,3,4,,
{8}7,7,8,,2,2,1,,
{4}3/7,1^4[4:1]/5^8[4:1],,,
{8}3/4,,2/5,,7,7,8,,
{8}5/6,,4/7,,2,2,1,,
{8}4/7,,2/5,,8,8,{4}1s5[2:1],{1},
{2}7h[2:1],5h[2:1],
{2}4h[2:1],2,
{2}2h[2:1],4h[2:1],
{2}5h[2:1],7,
{2}7h[2:1],8h[2:1],
{2}1h[2:1],2h[2:1],
{4}3,2,1,8,
{4}7,6,4/5,,
{8}2,2,1,,7,7,8,,
{4}1/2,3/4,5/6,7/8,
{8}1,1,6,,8,8,3,,
{4}1/2,7/8,5/6,3/4,
{8}2,2,4,,7,7,5,,
{4}4/5,3/6,2/7,1/8,
{8}3,3,1,,6,6,8,,
{8}3,3,1-4[4:1]*-6[4:1],,,,,,
{1}7h[8:7]/8h[8:7],
{1}1h[8:7]/8h[8:7],
{1}1h[8:7]/2h[8:7],
{4}1^4[4:1]/8^5[4:1],,,2b/7b,
{8}1h[4:3]/8h[4:3],,,,,,,1pp4[8:5]/8qq5[8:5],{1},
{8}2h[8:3],,,4h[4:1],,3,2/5,,
{8}7h[8:3],,,5h[4:1],,6,4/7,,
{8}3h[8:3],,,1h[4:1],,2,3/8,,
{8}6h[8:3],,,8h[4:1],,7,1/6,,
{8}8h[8:3],,,1h[4:1],,8,2/7,,
{4}3/6,2/4,5/7,1/8,
{8}3h[4:1]/4h[4:1],,,5h[4:1]/6h[4:1],,,1b/8b,
E

MASTER

(178){8}
3h[4:3]/4h[4:3],,,,,,,56,
4h[8:7]/7h[8:7],,,,,,,,
7qq4[2:1]/8pp3[2:1],,,,,,,,
2h[8:5]/7h[8:5],,,,,,{16}4,5,4,5,

{8}
3,4,25,3,4,3,25,3,
6,5,47,6,5,6,47,6,
1,8,27,1,8,1,27,18,
3h[4:1]/6h[4:1],,,,{16}4,5,{8}4,6,3,

{4}
7<4[4:1],4>1[4:1],1<6[4:1],6pp4[2:1],
2h[8:4],,{8},1,8,7,
{4}2>5[4:1],5<8[4:1],8>3[4:1],3qq5[2:1],
7h[8:4],,,18,
2-5[8:1],7-3[8:1],1-5[8:1],18,
7-4[8:1],2-6[8:1],8-4[8:1],18,
{12}2,1,2,7,8,7,3,4,3,6,5,6,
{16}15,,,37,,,15,,48,,,26,,,48,,
{1}1h[8:7]/5h[8:7],

{8}
1,4,3,7,56,47,,
3h[4:1],,8,2-5[8:1],1-6[8:1],2,1,,,
2,4,3,7,5,6h[4:1],,8h[4:1],
,1,2,7,18,27,36,,
6,8,7,3,1,2h[4:1],,4h[4:1],
,5,6,7>2[8:1],,4,4,,
3,5,4,6,2h[4:1]/8-4[8:1],,,,
1-5[8:1]/6h[4:1],,,7,,{16}4,5,4,5,4,5,

{8}
4>1[8:1],5,6,7,7<4[8:1],8,1,2,
2<7[8:1],3,4,5,5>2[8:1],6,7,8,
8>3[8:1],7,6,5,5<8[8:1],4,3,2,
2>5[8:1],1,8,7,7>2[8:1],6,5,4,
4,5,3,7h[4:1],,6,7,6,
8,1,7,3h[4:1],,2,3,2,
1,5,3,7h[8:3],2h[4:1],,,,
{1}1V36[2:1]/5V72[2:1],

{16}
3,,4,,25,,3,,4,,3,,5,4,5,4,
6,,5,,47,,6,,5,,6,,4,5,4,5,
2,,1,,38,,2,,1,,2,,8,1,8,1,
{8}7,8,16,7,78,16,2b/5b,,
6,5,47,6,5,6,47,6<1[8:1],
,5,4,3>8[8:1],,,,5h[4:1],
,4w8[2:1],36,4,,,,,
{1}1pp8[2:1]/5pp4[2:1],

{16}
4,5,4,,7,,2,,5,4,5,,2,,7,,
3,4,3,,8,,1,,6,5,6,,1,,8,,
3,5,4,,7,,1,,6,4,5,,2,,8,,
4,5,4,,8,,1,,27,,36,,45,,,,
2,1,2,,5,,4,,7,8,7,,4,,5pp8[4:1],,
,,1,,2,,3,,,,,,45,,,,
6,5,6,,56,,47,,3,4,3,,34,,25,,
1q4[4:1],,,,,,6,,6,,5,4,5,4,5,4,

{8}
5<8[8:1],4,3,2,2>5[8:1],1,8,7,
7>2[8:1],6,5,4,4<7[8:1],3,2,1,
1<6[8:1],2,3,4,4>1[8:1],5,6,7,
7<4[8:1],8,1,2,2<7[8:1],3,4,5,
5,1,7,3h[4:1],,2,3,2,
4,8,2,6h[4:1],,7,6,7,
,1h[4:1]/8h[4:1],,,1-5[8:1]/8-4[8:1],,,,
{16}2b/6b,,,3b/7b,,,1b/5b,,,,,,,,,,

2,,5,,3,4,3,,7,,4,,6,5,6,,
1,,5,,2,4,2,,8,,4,,7,5,7,,
3-7[8:1],,,,5,,5-1[8:1],,,,2,,2,,,,
{1}4qq1[2:1]/8qq5[2:1],
{16}
7,,4,,6,5,6,,2,,5,,3,4,3,,
8,,4,,7,5,7,,1,,5,,2,4,2,,
6-2[8:1],,,,4,,4-8[8:1],,,,7,,7,,,,
{1}1pp4[2:1]/5pp8[2:1],
{16}
4,,6,,2,4,3,,5,,3,,7,5,6,,
3V15[4:1],,,,,,8,,8,,,,17,,,,
8,,2,,6,8,7,,1,,7,,3,1,2,,
7V51[4:1],,,,,,4,,4,,,,35,,,,
4,,5,,3,4,2,,5,,4,,6,5,7,,
4,,5,,2,1,3,,5,,4,,7,8,6,,
5h[4:1]/6h[4:1],,,,,,,,45,,,35,,,25,,
{8}1v4[8:1]/5v8[8:1],,,,3b/7b,,26,17,

{4}
8-4[8:1],8,1s5[8:1],1,
8-4[4:1],,,2>6[4:1],
6<2[4:1],2>6[4:1],6<2[4:1],2q4[4:1],
7h[4:1],,{8}5,4,36,,
{4}7-4[8:1]/8,1,1/2-5[8:1],8,
3>8[8:1]/7<4[8:1],,3h[4:1]/7h[4:1],,
{8}4>1[8:1],5,6,7<4[8:1],8,1,2,3,
4>1[8:1],5,6,7,8,,27,,

{16}
18,,3,4,3,4,3,,18,,6,5,6,5,6,,
45,,2,1,2,1,2,,45,,7,8,7<3[4:1],8,7,,
{4}3>7[4:1],7<3[4:1],3>7[4:1],7p5[4:1],
2h[4:1],,{16}4,5,4,,36,,,,
{8}7-3[8:1]/8-4[8:1],16,78,,1-5[8:1]/2-6[8:1],38,12,,
1-6[8:1]/8-3[8:1],27,18,,45,,27,,
8<5[8:1],1,2,3,4>1[8:1],5,6,7,
8p5[4:1],1,2,3,4,,,,

5h[4:3]/6h[4:3],,,,,,,34,
2h[8:7]/5h[8:7],,,,,,,,
1qq6[2:1]/2pp5[2:1],,,,,,,,
2h[8:5]/7h[8:5],,,,,,{16}4,5,4,5,
{8}3h[4:3]/6h[4:3],,,,,,,4/8w4[4:1],
,,,,,{16}1,8,{8}27,,

2-5[8:1]/8,,2,6-1[8:1],,6,4,,
1/7-4[8:1],,7,3-8[8:1],,3,5,6,
2-6[8:1],1,2,1<5[8:1],,1,2,3,
7-3[8:1],8,7,8>4[8:1],,8,7,6,
1-5[8:1],8-6[8:1],1-4[8:1],8-5[8:1],1-3[8:1],8-4[8:1],1-6[8:1],8-3[8:1],
1-5[8:1],8<1[4:1],1,8,,,,,
3b/7b,,48,2b/6b,,15,3b/7b,,
{1},,,E

Re:MASTER


名前:
コメント:

タグ:

+ タグ編集
  • タグ:
最終更新:2026年10月04日 08:22