EASY
BASIC
ADVANCED
EXPERT
MASTER
(182){8}
57,6,3,2-5[8:1]/4,,2,6,5/7-4[8:1],
,7,2,1/3-8[8:1],,3,6,7,
68,1,2,1-5[8:1]/3,,1,8,7,
68,2,13,5,{16}3,4,3{8},25,18,
57,6,3,2-5[8:1]/4,,2,6,5/7-4[8:1],
,7,2,3,24,3,57,6,
13,2,6,7-3[8:1]/8,,7,1,2h[8:5],
,,,,{32}8,7,6,5,4,3,2,1,8b{8},,
24,3,6,5/7-4[8:1],,7,3,2-5[8:1]/4,
,2,7,6-1[8:1]/8,,6,3,2,
13,8,7,6/8-4[8:1],,8,1,2,
13,7,68,4,{16}6,5,6{8},47,18,
24,3,6,5/7-4[8:1],,7,3,2-5[8:1]/4,
,2,7,6,57,6,24,3,
68,7,3,1/2-6[8:1],,2,8,7h[8:5],
,,,,{32}1,2,3,4,5,6,7,8,1b{8},,
47,6,5,38,6,5,12,,
25,3,4,16,3,4,78,,
38,2,1,47,2,1,56,,
16,7,8,25,7,8,34,,
25,3,4,47,6,5,1/8h[4:1],,
6-1[8:1],,3-8[8:1],,5-1[8:1],,4,,
16,7,8,38,2,1,18,,
{16}3,4,3,4,2,,6,5,6,5,7,,1b/8b,,,,
25,,3,4,3,,25,,6,,5,,47,,2,,
47,,6,5,6,,47,,3,,4,,25,,7,,
16,,7,8,7,,16,,2,,1,,38,,6,,
38,,2,1,2,,38,,7,,8,,16,,2,,
47,,3,4,3,,25,,47,,36,,1h[4:1]/8,,8,,
3-8[8:1],,3,,6-1[8:1],,6,,4-8[8:1],,4,,5,,5,,
47,,6,5,6,,25,,3,4,3,,7,8,7,,
25,,3,4,3,,47,,6,5,6,,2,1,2,,
{8}
7-2[8:1],,7,3-6[8:1],,3,8-5[8:1],,
8-3[8:1],,8,4-7[8:1],,4,8,,
7<4[8:1],8,1,2<7[8:1],3,4,5>2[8:1],6,
7,8,1,2,13,7,68,,
2-7[8:1],,2,6-3[8:1],,6,1-4[8:1],,
1-6[8:1],,1,5-2[8:1],,5,8-5[8:1],,
8-3[8:1],,8,4-7[8:1],,4,2,,
6/8b,,,1b/3,,,2b/7b,,
7>2[8:1],,7,3<6[8:1],,3,8-4[8:1],,
8>3[8:1],,8,4<7[8:1],,4,8,,
2>5[8:1],1,8,7>2[8:1],6,5,4<7[8:1],3,
2,1,8,7,68,2,13,,
2<7[8:1],,2,6>3[8:1],,6,1-5[8:1],,
1<6[8:1],,1,5>2[8:1],,5,8-4[8:1],,
8>3[8:1],,8,4<7[8:1],,4,1w5[8:1],,
1b,,,4b/8b,,,5bp1[1:1]*q1[1:1],,
{1},
{8}
,,2-7[8:1]/5,,2/6-3[8:1],,16,1h[4:1],
,7<4[8:1],2,7,2-5[8:1],5-2[8:1],2,6,
,,4/7-2[8:1],,3-6[8:1]/7,,38,8h[4:1],
,2>5[8:1],7,2,7-4[8:1],4-7[8:1],7,3,
,,1-5[8:1]/2-6[8:1],,12,,34,1h[4:1]/6h[4:1],
,,7-3[8:1]/8-4[8:1],,78,,56,3h[4:1]/8h[4:1],
,,4-8[8:1]/5-1[8:1],,45,,36,1b/8b,
,7,6,57,{16}3,4,3{8},25,8,
16,,1-4[8:1]/8,,1/5-8[8:1],,25,2h[4:1],
,8<5[8:1],3,8,1-6[8:1],6-1[8:1],1,5,
,,1/8-5[8:1],,4-1[8:1]/8,,47,7h[4:1],
,1>4[8:1],6,1,8-3[8:1],3-8[8:1],8,4,
,,5-1[8:1]/6-2[8:1],,56,,37,1h[4:1]/8h[4:1],
,,3-7[8:1]/4-8[8:1],,34,,26,1b/8b,
,2,3,24,{16}6,5,6,,47,,1b/8b,,
,,3,4,3,,6,5,6,,3,4,2,,6,5,
{8}
7,,2-5[8:1]/5,,2/7-3[8:1],,17,1h[4:1],
,8-5[8:1],5-8[8:1],8-3[8:1],4-1[4:1],4-7[8:1],,,
,,4/7-4[8:1],,2-6[8:1]/7,,28,8h[4:1],
,1-4[8:1],4-1[8:1],1-6[8:1],5-8[4:1],5-2[8:1],,,
,,2-6[8:1]/3,,1-5[8:1]/2,,18,8,
,,6/7-3[8:1],,7/8-4[8:1],,18,1,
,,3/4-8[8:1],,4/5-1[8:1],,56,6,
,2,3,24,{16}6,5,6{8},47,3,
24,,3-8[8:1]/8,,3/6-2[8:1],,46,4h[4:1],
,5-8[8:1],8-5[8:1],5-2[8:1],1>4[4:1],1<6[8:1],,1,
,,1/6-1[8:1],,3-7[8:1]/6,,35,5h[4:1],
,4-1[8:1],1-4[8:1],4-7[8:1],8<5[4:1],8>3[8:1],,8,
,,2-6[8:1]/3,,2/8-4[8:1],,68,6,
,,6/7-3[8:1],,1-5[8:1]/7,,13,3,
,7,6,57,{16}3,4,3,,25,,1b/8b,,
,,27,,36,,45,,4,5,3,6,1b,,,,
25,,3,4,3,,2-5[8:1]/5,,6,,2,,6,,4/7-4[8:1],,
3,,7,,3,,1/6-1[8:1],,2,,36,,4,,5,,
47,,6,5,6,,4/7<4[8:1],,3,,7,,1,,3,4,
3,,56,,18,,27,,6,5,6,,34,,18,,
47,,6,5,6,,4/7<4[8:1],,3,,7,,2,,3>8[8:1]/5,,
6,,3,,7,,16,,3,4,3,,6,5,6,,
13,,2,,68,,7,,4,5,4,,56,,34,,
,,45,,36,,27,,{32}1,2,3,4,5,6,7,8,1b{16},,,,
47,,6,5,6,,4/7-4[8:1],,3,,7,,3,,2-5[8:1]/5,,
6,,2,,6,,3-8[8:1]/8,,7,,36,,5,,4,,
25,,3,4,3,,2>5[8:1]/5,,6,,2,,8,,6,5,
6,,34,,18,,27,,3,4,3,,56,,18,,
25,,3,4,3,,2>5[8:1]/5,,6,,2,,7,,4/6<1[8:1],,
{8}3,6,2,38,16,24,57,1b>8[1:2]/8b<1[1:2],
{1},,,,
E
Re:MASTER
最終更新:2026年10月04日 08:20