アットウィキロゴ

言ノ葉カルマ

アーティスト そらる・ろん×れるりり

BPM EASY BASIC ADVANCED EXPERT MASTER Re:MASTER
150 2 4 8 10+ 13 13

EXPERT MASTER Re:MASTER
譜面制作者 Jack mai-Star Jack

EASY


BASIC


ADVANCED


EXPERT


MASTER

(150){16}1,,1,,6,5,,6,,,
6,,5,,4,,3,,3,,7,8,,7h[16:5],,,,,1,,,,
8,,8,,3,4,,3,,,3,,4,,5,,
6,,6,,2,1,,2h[16:5],,,,,8,,,,
7,,2,,6,5,,8,,3,4,,1,,8,,
2,,7,,3,4,,1,,6,5,,8,,1,,
6,,3,,7,8,,5,,2,1,,4,,5,,
48,,15,,37,26,,48,,,,,2b/6b,,,,
8>3[8:1],,7,,6,6,,5,,5,4<6[8:1],,3,,2,,
1<6[8:1],,2,,3,3,,4,,4,5>3[8:1],,6,,7,,
8-4[8:1],,8,,1,1,,5,,1,1-5[8:1],,1,,8,,
48,,48,,37,26,,1b/5b,,,,,,,,,

3,,3,,2,4,,2h[16:7],,,1,,8,,7,,
56,,,56,,,,,5-1[8:1],,,,,,,, 6,,6,,7,5,,
7h[16:7],,,8,,1,,2,, 6,,3,,8,1,,
7-3[8:1],,,1b,,1b,,,,5,,6,,3,4,,3h[16:7],,,
4,,5,,6,,45,,,45,,,,,4-8[8:1],,,,,,,,
1,,2,,7,8,,7h[16:7],,,8,,1,,2,,
6,,5,,3,4,,1h[16:7],,,,,8,,8,,

3,,4,,7,8,,5h[16:7],,,8,,1,,2,,
3,,4,,7-3[16:1],7,,1,,,,,1,,,,
6,,5,,2,1,,4h[16:7],,,1,,8,,7,,
6,,5,,2-6[16:1],2,,8,,,,,8b,,,,
1,,1,,8,2,,1h[16:7],,,6,,5,,4,,
3-7[8:1],3,,1,,,,,1s5[8:1],,,,,,,,

8-4[8:1],,8,,2-6[8:1],,2,,7,,8,1,,8,,
3h[16:3],,,4h[8:1],,5,5h[8:1],,
6h[16:5],,,,,1b,,,,8,,8,,1,7,,8h[16:7],,,
3,,4,,5,,6-2[8:1],6,,8,,,,,,,,,,1,8,1,
8,,3,,6,,3,,5,4,5,4,,7,2,7,
2,,8,,1,,2,2h[16:7],,,,,6,,6,,

2b/6b,,4,,26,,4,,26,,4,4,,,5,,
37,,5,,37,,5,,37,,5,5,,,4,,
2b/6b,,4,,26,,4,,26,,4,5,,,4,,
37,,5,,37,,5,,37,,5,4,,,5,,
2b/6b,,4,,37,,5,,26,,4,5,,,7,,
3b/7b,,5,,26,,4,,37,,5,4,,,2,,
1b/5b,,3,,48,,6,,1b/5b,,3,6,,,48,,
78,,56,,12,,34,,1b/8b,,,,,,
{8}
1-7[8:1],8-2[8:1],,,7-4[8:1],2-5[8:1],,,
4-1[8:1],5-8[8:1],,,{16}1,8,
{8}1>4[8:1],8<5[8:1],1,8,3-6[8:1],3,,
8,{16}7h[16:3],,,8h[16:3],,,{8}1,
2p5[8:1],1q6[8:1],,,,47,38,1-4[8:1],
2-7[8:1],,,4p5[8:1],7>2[8:1],,,5<8[8:1],
2>5[8:1],,,7,3,7,{16}1,5,1,8,
1,,7,8,{8},7>2[8:1],3p6[8:1],,{16},8,,2,
8-4[8:1],,2-6[8:1],,8,,2{8},,3,2,1,
8<5[8:1],,2>5[8:1],,7<4[8:1],,,,
{16}26,37,48,15,,,48,,37,,26,,15,,
4b/8b,,
{4}
2>5[4:1],5p8[4:1],8p3[4:1],3>6[2:1],,,,,
7<4[4:1],4q1[4:1],1q6[4:1],6<3[2:1],,,,,
1p5[4:1],5>2[4:1],2q4[4:1],4<1[2:1],,,,,
8q4[4:1],4<7[4:1],7p5[4:1],5>8[2:1],,,
{8},1b,1b,,
{16}8,,3,4,,6,5,6,5,6,5,,7,,8,,
2,1,,3,4,3,4,3,4,,7,8,,7,8,6,
1,5,2,4,3,6,5,7,48,,37,,26,,15,,
2,1,8,3,7,4,6,5,37,,26,,1b/5b,,,
1,8,1,8,2,7,2,7,3,6,3,6,4,5,4,5,
4,5,3,6,2,7,1,8,1,5,2,6,3,7b,,,,
7,2,6,,5,,8-4[8:1],5-1[8:1],,,,,,,2,7,2,
7,,5,4,,12,,34,,56,,78,,1b/2b,,
{24},,,,,,,,,,,,2,3,4,5,6,7,8,1,2,3,4,5,
6,7,8,1,2,3,4,5,6,7,8,1,2,3,4,5,6,7,8{8},
4-6[8:1],

5-3[8:1],,,6-1[8:1],3-8[8:1],,,
1p4[8:1],8q5[8:1],,,{16}3,6,
{8}3-8[8:1],6,5,4,
48,{16}15,26,{8},3-8[8:1],7-4[8:1],,,1,
5,2,6,3,,37,26,1b/5v7[8:1],1v3[8:1],,,
7v5[8:1],3v1[8:1],,,
5<7[8:1],1>3[8:1],,,8,4,8,{16}1,5,
3,7,1,,8,1,{8},7-3[8:1],1-5[8:1],,
{16},8,,1,8-4[8:1],,2-6[8:1],,8,,2,,,,,,,,

7-4[8:1],,4-7[8:1],,2,2,,,2-5[8:1],,
5-2[8:1],,7,7,,,8-4[8:1],,4-6[8:1],,2,2,,,
2,6,4-8[8:1],,8-4[8:1],,,,,,
6-2[8:1],,6,,,,1,,8h[8:3],,,7,,,6,,
{8}6-1[8:1],1-3[8:1],,,,
1-5[8:1]/8-4[8:1],27,,
6<1[8:1],6,,2<7[8:1],6<1[8:1],,,
3<6[8:1],7<4[8:1],,,3-8[8:1],
8-6[8:1],,,7-4[8:1],4-2[8:1],,,
2-6[8:1],6p4[8:1],,,8,8-4[4:1],
1-5[4:1],8,1,,7,8,1,2h[4:3],,
4,,8,,6,,{16}26,37,48,15,,,
{8}48,37,26,15,
4q1[2:1]/8q5[2:1],,,,,,,,

{16}8b,1b,,

{1},
,
E

Re:MASTER


名前:
コメント:

タグ:

+ タグ編集
  • タグ:
最終更新:2026年10月04日 18:05