EASY
BASIC
ADVANCED
EXPERT
(160){1},,{4}6,4/5,3,4/5,7,5/6,2,3/4,8,5/7,1,4/2,8-4[8:1],2-6[8:1],7,{16}1,8,1,8,{4}1,2/5,8,7/4,1,2/4,8,7/5,1,2/3,8,6/7,{16}3,4,3,,6,5,6,,2-5[8:1]/7-4[8:1],,,,,,,,
{16}2b/7b,,,6,5,,,5,4,,,4,3,,,3,4-1[8:1]*-7[8:1],,,,,,,,,,7,,6/8,,1/5,,2/4,,,2,1,,,1,8,,,8,7,,,7,8-3[8:1]*-5[8:1],,,,,,,,,,,,2/7,,,,3/6,,,3,4,,,4,5,,,5,6,,,6,5-8[8:1]*-2[8:1],,,,,,,,,,,,2/7,,,,{4}8-4[8:1],3,1-5[8:1],6,7-4[8:1],2-5[8:1],8-4[8:1],1,{16}2b/7b,,,5,4,,,4,3,,,3,2,,,2,1-5[8:1],,,,4,,,,,,6,,5/7,,8/4,,1/3,,,2,1,,,1,8,,,8,7,,,7,8-4[8:1],,,,5,,,,,,,,4/5,,,,2/7,,,7,8,,,8,1,,,1,2,,,2,3h[4:1],,,,2,,,2,1,,,1,8,,,8,{4}7-4[8:1],3,2-5[8:1],6,8,1<5[4:1]/8>4[4:1],,,
{16}2/5,,,3,4,,7/4,,,6,5,,2/5,,,3,4,,7/4,,,6,5,,2-5[8:1]/5,,,,,,,,7/4,,,6,5,,2/5,,,3,4,,7/4,,,6,5,,2/5,,,3,4,,7/4-8[8:1],,,,,,,,6/1,,,7,8,,3/8,,,2,1,,6/1,,,7,8,,3/8,,,2,1,,6-1[8:1]/1,,,,,,,,3/8,,,2,1,,6/1,,,7,8,,3/8,,,2,{16}1h[16:3],,,3h[16:3],,,5h[16:3],,,7h[16:3],,,1,,2,,
{2}6q5[4:1],2q1[4:1],7q6[4:1],3q2[4:1],8q7[4:1],4q3[4:1],6<2[4:1],,3p4[4:1],7p8[4:1],2p3[4:1],6p7[4:1],1p2[4:1],5p6[4:1],3>7[4:1],,{4}5q1[8:1],4,4p8[8:1],5,5q2[8:1],4,4p7[8:1],5,5q3[8:1],4,4p6[8:1],5,5<3[4:1],4,4h[4:1],5,8p4[8:1],1,1q5[8:1],8,8p3[8:1],1,1q6[8:1],8,8p2[8:1],1,1q7[8:1],8,8<2[4:1],1,1h[4:1],8,
{4}1b/8b,,,,,,,{16}3h[16:3],,,4,3,,6h[16:3],,,5,6,,3h[16:3],,,4,3,,6h[16:3],,,5,6,,4/5,,4/5,,2h[16:3],,,3,2,,7h[16:3],,,6,7,,2h[16:3],,,3,2,,7h[16:3],,,6,7,,{8}4/5,4/5,2h[4:1]/7-4[8:1],,,,2,1,8,7h[4:1]/2-5[8:1],,,,7,8,1,{16}2h[4:1],,,1,1,,7h[4:1],,,8,8,,3h[4:1],,,2,2,,6h[4:1],,,7,7,,4/5,,4/5,,3h[4:1],,,4,4,,6h[4:1],,,5,5,,2h[4:1],,,3,3,,7h[4:1],,,6,6,,1/8,,1/8,,2h[4:1],,,1,1,,
7h[4:1],,,8,8,,3h[4:1],,,4,4,,6h[4:1],,,5,5,,2/7,,2/7,,3h[4:1],,,4,4,,6h[4:1],,,5,5,,2h[4:1],,,1,1-5[8:1],,,,4,,,,3,,,,
{16}2b/7b,,,3h[8:1]/5h[8:1],,,4h[8:1]/6h[8:1],,,3h[8:1]/5h[8:1],,,4h[8:1]/6h[8:1],,,3h[8:1]/5h[8:1],,,4h[8:1]/6h[8:1],,,3h[8:1]/5h[8:1],,,4/6,,4/6,,
2h[8:1]/8h[8:1],,,1h[8:1]/7h[8:1],,,2h[8:1]/8h[8:1],,,1h[8:1]/7h[8:1],,,2h[8:1]/8h[8:1],,,1h[8:1]/7h[8:1],,,2h[8:1]/8h[8:1],,,1h[8:1]/7h[8:1],,,2/8,,2/8,,
5h[8:1]/6h[8:1],,,4h[8:1]/3h[8:1],,,1h[8:1]/2h[8:1],,,7h[8:1]/8h[8:1],,,5h[8:1]/6h[8:1],,,3h[8:1]/4h[8:1],,,1h[8:1]/2h[8:1],,,7h[8:1]/8h[8:1],,,
5qq2[2:1]/6pp1[2:1],,5/6,,,,,,,,,,,,,,8b/3b,,,,1h[8:1]/6h[8:1],,,8h[8:1]/3h[8:1],,,2h[8:1]/5h[8:1],,,7h[8:1]/4h[8:1],,,2/8,,2/8,,1bw5[2:1],,,,,,,,,,,,
{16},,,,4/7,,6,5,6,,3,4,3,,6,5,6,,3,4,2,,6,5,7,,3,4,2,,6,5,7,,3,4,2,,6,5,7,,3,4,2,,6,5,7,,2,1,2,,7,8,7,,2,1,2,,7,8,7,,2,1,2,,7,8,7,,2,1,2,,7,8,7,,2,1,3,,7,8,6,,2,1,3,,7,8,6,,2,1,3-8[8:1],,,,6-1[8:1],,,,2-5[8:1],,,,7,,,,
{16}4b/7b,,6,5,6,,1,,2/5,,3,4,3,,8,,7/4,,6,5,6,,1,,2/5,,3,4,3,,8,,7-5[8:1]/4,,,,1-3[8:1],,,,8-4[8:1],,8,,1,,1,,2/5,,3,4,3,,8,,7/4,,6,5,6,,7,,1/6,,7,8,7,,4,,8/3,,2,1,2,,5,,1/6,,7,8,7,,4,,8/3,,2,1,2,,5,,1-5[8:1]/6,,,,8,,,,4/7,,,5/6,5/6,,7,,8-4[8:1]/3,,,,1,,,,5/2,,,4/3,4/3,,,2/7,2/7,,,1/8,{4}1b<5[4:1]/8b>4[4:1],,,2-5[8:1],6-1[8:1],2-5[8:1]*-7[8:1],,{16}6,,3,4,3,,6,5,6,,1,8,1,8,1,8,1w5[4:3],E
MASTER
(160){16}
18,,3,4,3,,6,5,6,,3,4,3,,6,5,6,,3,4,2,,6,5,7,,3,4,2,,6,5,7,,2,4,3,,7,5,6,,2,4,3,,
7,5,6,,2,1,3,,7,8,6,,27,,1,1,1,1,
18,,2,1,2,,7,8,7,,2,1,2,,7,8,7,,2,1,3,,7,8,6,,2,1,3,,7,8,6,,3,1,2,,6,8,7,,3,1,2,,
45,,7,7,7,,2,2,2,,45,45,45,,18,18,18,18,
1-5[16:1]/8,,,6,1/6-2[16:1],,,3,3-5[16:1]/6,,,8,3/8-4[16:1],,,4,4<7[8:1]/8>3[8:1],,,, ,,,, ,,34,,18,,56,,
8-4[16:1]/1,,,3,8/3-7[16:1],,,6,6-4[16:1]/3,,,1,6/1-5[16:1],,,5,5>2[8:1]/1<6[8:1],,,, ,,,, 13,,4,,68,,5,,
1-5[16:1]/8,,,6,1/6,,,46,46,,2,,34,,7,,3-1[16:1]/8-4[16:1],,,38,38,,,,56,,,, 38,,,,
1-3[16:1]/5,,,5,1-7[16:1]/5,,,5,1-5[8:1]/5,,,5,15,,,,8-6[16:1]/4,,,4,8-2[16:1]/4,,,4,8-4[8:1]/4,,,4,48,,,,
2-6[16:1]/7,,,7,2/7-1[16:1],,,3,3<6[16:1]/7,,,7,3/7-3[16:1],,,3,3<6[8:1]/7>2[8:1],,,, ,,,, ,,56,,18,,34,,
7-3[16:1]/2,,,2,7/2-8[16:1],,,6,6>3[16:1]/2,,,2,6/2-6[16:1],,,6,6>3[8:1]/2<7[8:1],,,, ,,,, 68,,5,,13,,4,,
1>3[16:1]/5,,,5,1<7[16:1]/5,,,5,1-5[16:1]/5,,,5,15,,,,8<6[16:1]/4,,,4,8>2[16:1]/4,,,4,8-4[16:1]/4,,,4,48,,,,
2-6[16:1],,,8,2/8-4[16:1],,,1,1-5[16:1]/8,,,7,1/7-3[16:1],,,1,1-5[16:1]/7,,,4,
1/4w8[4:1],,,, ,,,, ,,,,
1,,,3,4,,8,,,6,5,,1,,,3,4,,8,,,6,5,,3,5,1,7,4,6,2,8,1,,,6,5,,8,,,3,4,,1,,,6,5,,8,,,3,4,,1,1,1,,56,,34,,
8,,,3,4,,1,,,6,5,,8,,,3,4,,1,,,6,5,,8,8,8,,34,,56,,12,,,6,5,,78,,,3,4,,12,,78,,
18,,,24,,,18,,,57,,,18,,27,,
{2}
6h[4:1]/3h[4:3],2h[4:3],1h[4:3],8h[4:3],7h[4:3],6h[2:1],5>7[2:1],,
3h[4:1]/6h[4:3],7h[4:3],8h[4:3],1h[4:3],2h[4:3],3h[2:1],4<2[2:1],,
{4}
3/5h[4:1],8h[2:1],1,4h[2:1],3,7h[2:1],8,3h[2:1],2,6h[2:1],5,1h[2:1],8,5h[2:1],4h[4:1],,
6/4h[4:1],1h[2:1],8,5h[2:1],6,2h[2:1],1,6h[2:1],7,3h[2:1],4,8h[2:1],1,4h[2:1],5h[4:1],,
2b>8[4:3]/7b<1[4:3],,,, ,,,
{16}1h[16:3],,,4,2,,8h[16:3],,,5,7,,1h[16:3],,,4,2,,8h[16:3],,,5,7,,1,,34,,
8h[16:3],,,4,6,,1h[16:3],,,5,3,,8h[16:3],,,4,6,,1h[16:3],,,5,3,,8,,56,,
1h[16:3],,,6,45,,2,2,2,,45,,7,7,7,,45,,27,,1s5[8:1]/8z4[8:1],,,, ,,,,
4/2h[16:3],,,8,3,,5/7h[16:3],,,1,6,,4/2h[16:3],,,8,3,,5/7h[16:3],,,1,6,,24,,18,,
5/7h[16:3],,,3,8,,4/2h[16:3],,,6,1,,5/7h[16:3],,,3,8,,4/2h[16:3],,,6,1,,68,,45,,
1/3h[16:3],,,7,4,,8/6h[16:3],,,2,5,,1/3h[16:3],,,7,4,,8/6h[16:3],,,2,5,,13,,45,,
8/6h[16:3],,,2,4,,1/3h[16:3],,,7,5,,8/6h[16:3],,,2,4,,13,,4-1[16:1]/5-8[16:1],,,, ,,,,
1b,1b,1b,1b-4[16:1],,,
8-5[16:1],,,1-3[16:1],,,8-6[16:1],,,1-4[16:1],,,8-5[16:1],,,1-5[16:1],,,
8,8,8,8,8-6[16:1],,,2-4[16:1],,,1-5[16:1],,,2-6[16:1],,,1-7[16:1],,,3-5[16:1],,,1-6[16:1],,,2-5[16:1],,,
8,8,8,8,8-6[16:1],,,2-4[16:1],,,8-5[16:1],,,1-4[16:1],,,8-6[16:1],,,1-5[16:1],,,8-5[16:1],,,1-4[16:1],,,8,8,8,8,
{32}8,7,6,5,4,3,2,1,
{16}8b/4b,,,,15,26,37,48,15,,37,,12,,,56,,,34,,,8/1w5[16:1],,,,,,,
7/3-5[16:1],,,8,3/7-4[16:1],,,1,7/2-5[16:1],,,7,2/8-4[16:1],,,3,8>3[8:1]/4<7[8:1],,,, ,,,, ,,23,,67,,18,,
2/6-4[16:1],,,1,6/2-5[16:1],,,8,2/7-4[16:1],,,2,7/1-5[16:1],,,6,1<6[8:1]/5>2[8:1],,,, ,,,, 46,,24,,47,,14,,
4/8-4[16:1],,,3,38,,,35,35,,7,,56,,2,,1-5[16:1]/6-8[16:1],,,16,16,,,,3,4,2,5,1,,26,,
8>3[16:1]/4,,,4,8<5[16:1]/4,,,4,8-4[16:1]/4,,,4,48,,,,1<6[16:1]/5,,,5,1>4[16:1]/5,,,5,1-5[16:1]/5,,,5,15,,,,
1/7<4[16:1],,,1,7/2q6[16:1],,,8,2/7<4[16:1],,,3,7/2-6[16:1],,,7,2<7[8:1]/6>3[8:1],,,,26,,,, ,,67,,23,,18,,
8/2>5[16:1],,,8,2/7p3[16:1],,,1,7/2>5[16:1],,,6,2/7-3[16:1],,,2,7>2[8:1]/3<6[8:1],,,,37,,,,35,,57,,25,,58,,
2>5[16:1]/6,,,6,2<7[16:1]/6,,,6,2-6[16:1]/6,,,6,26,,,,7<4[16:1]/3,,,3,7>2[16:1]/3,,,3,7-3[16:1]/3,,,3,37,,,,
8/2-6[16:1],,,7,2/8-4[16:1],,,3,8>3[8:1]/4<7[8:1],,,,48,,,,
7-3[16:1],,,2,7/1-5[16:1],,,6,1<6[8:1]/5>2[8:1],,,,15,,,,
1,8,2,7,1,,8,6,8,,1,3,1,,7,5,7,,2,4,2,,5,4,5,4,5,3,6,4,5,4,5,6,7,8,1,2,3,4,
{32}5,6,7,8,1,2,3,4,5p2[4:3],6,7,8,1,2,3,4,
{1}5b,,E
Re:MASTER
- 配置ミス、スライドの速さを修正しました。 -- けもがみ (2026-01-20 03:42:17)
- EXPERT譜面を追加しました。修正等ありましたらよろしくお願いします。 -- Sugar (2026-03-10 15:18:21)
最終更新:2026年10月04日 09:38