アットウィキロゴ

Revive The Rave

アーティスト void(Mournfinale)

BPM EASY BASIC ADVANCED EXPERT MASTER Re:MASTER
165 4 6 9 12+ 13+ 14

EXPERT MASTER Re:MASTER
譜面制作者 Jack Techno Kitchen ぴちネコ

EASY


BASIC


ADVANCED


EXPERT


MASTER

(165)
{8}6/8-3[8:1],,8b,6,,24,35,46,57,,3,24,,
68,17,28,1-6[8:1]/3,,1b,3,,57,46,35,24,,
{16}6,,1,8,1,,,68,,,24,,{8}6/8-3[8:1],,8b,
6,,68,17,28,1-6[8:1]/3,,1b,3,,13,28,17,
6/8-3[8:1],,8b,6,,68,17,28,13,28,17,68,
{32}17,2,3,4,5,6,7,8,1b{16},,,,
6h[8:7],,1,,1,,,,7,,,5,,,3h[1:1],,,,8,,8,,,,
2,,,4,,,7h[1:1],,,,4,,4,,,,5,,,8,,,2h[1:1],,,,
5,,5,,,,3,,,1,,,8,,5-2[8:1]/6-1[8:1],,56,,,,,,
38,,2,1,,7,8,,3-8[8:1]/4-7[8:1],,34,,,,,,
16,,7,8,,2,1,,6-1[8:1],,6,,3-8[8:1],,3,,
7-4[8:1],,7,,2-5[8:1],,2,,6,,6,,3,3,,8,1,7,2,
6,3b,,,,16,,27,,38,,,,2,,2,1,,1,4,,38,,27,,
16,,,,7,,7,8,,8,5,,16,,27,,38,,,,2,,2,1,,1,4,,
2-5[8:1]/7-4[8:1],,18,,2b/7b,,,,12,12,,
78,78,,4b/5b,,16,,27,,38,,56,,2,,2,1,,1,4,,
38,,27,,16,,34,,7,,7,8,,8,5,,16,,27,,38,,
45,,38,,27,,16,,45,,12,,34,,56,,78,,
13,13,,68,68,,2b/7b,,1,8,1,,26,,7,
7h[8:1],,5,6,4,5,3,4,2,8,1,8,,37,,2,
2h[8:1],,4,3,5,4,6,5,7,,2,4b/5b,,3,,
4b/5b,,7b/8b,,12,,1b/2b,,,4b/5b,,
78,7b/8b,,,4b/5b,,37,3b/7b,,26,2b/6b,,
1b/8b,27,36,,4,5,4,,37,,6,6h[8:1],,8,7,
1,8,2,1,3,5,4,5,,26,,3,3h[8:1],,1,2,8,1,7,
8,6,4,5,4,,37,,6,6h[8:1],,8,7,1,8,2,1,3,
5,5,4,4,3,3,2,2,1,1,8,8,7,7,6,6,
{8}5b,2,5,2,5<8[8:1],2,5,,4,7,4,7,
4>1[8:1],7,4,,8h[8:1],7h[8:1],6h[8:1],
5h[8:1],4h[8:1],3h[8:1],2h[8:1],1h[8:1],
8h[8:1],6h[8:1],4h[8:1],2h[8:1],
{32}8,7,6,5,4,3,2,1,{16}8b,,,,
{12}2h[6:1],,1,1h[6:1],,4,4h[6:1],,5,
5h[6:1],,8,8h[6:1],,7,7h[6:1],,4,4h[6:1],,
5,45,,,7h[6:1],,8,8h[6:1],,5,5h[6:1],,
4,4h[6:1],,1,1h[6:1],,2,2h[6:1],,
5,5h[6:1],,4,45,,,{16}
2-5[8:1]/7-4[8:1],,18,,2b/7b,,,,7,8,7,,
3,4,3,4,2,1,3,8,4,7,5,6,4,,57,,18,,24,,
36,,2,4,2,,36,,7,5,7,,36,,45,,38,,27,,16,,
7,8,,2,1,,5,4,5,,2b/7b,,1,8,3,6,4,,2,1,2,,
6,5,6,5,7,8,6,1,5,2,4,3,5,,34,,18,,56,,
2b/7b,,6,5,6,,1b/8b,,3,4,3,,2b/7b,,45,,
1b/8b,,,
2bpp4[8:2]/7bqq5[8:2],,,
3b/6b,,{16},,,,,,,,3h[8:7],,5,,5,,,,4,,,2,,,
1h[1:1],,,,3,,3,,,,2,,,8,,,7h[1:1],,,,1,,1,,,,
8,,,6,,,5h[4:5],,,,7,,7,,,,6,,,4,,,3,,,,
3>6[8:6],,3,,,,4,,,3,,,2,,,,1<4[8:6],,1,,,,
2,,,1,,,8,,,,7<2[8:6],,7,,,,8,,,7,,,6,,,,
5-1[8:1],,5,,,,8,,,,2b/7b,,,,
1,8,1,8,1h[8:1],,7,7h[8:1],,5,6,4,5,3,4,2,
8,1,8,1,8h[8:1],,2,2h[8:1],,4,3,5,4,6,5,7,
1,8,1,8,1h[8:1],,7,7h[8:1],,5,6,4,5,3,4,2,
8,1,7,2,6,3,5,,1-6[8:1]/8-3[8:1],,27,,
1b/8b,,,,
5,4,5,4,5h[8:1],,3,3h[8:1],,1,2,8,1,7,8,6,
4,5,4,5,4h[8:1],,6,6h[8:1],,8,7,1,8,2,1,3,
5,4,5,4,5h[8:1],,3,3h[8:1],,1,2,8,1,7,8,6,
4,,56,,34,,7,7,,2,2,,13,,68,,
2h[8:7],,5,,5,,,,3,,,1,,,7h[1:1],,,,4,,4,,,,6,,,
8,,,3h[1:1],,,,8,,8,,,,2,,,4,,,6h[1:1],,,,1,,
1,,,,7,,,5,,,4,,2-5[8:1],,8,,12,,,,47,,6,5,,
3,4,,7-4[8:1],,1,,78,,,,25,,3,4,,6,5,,
2-5[8:1],,2,,7-4[8:1],,7,,3-8[8:1],,3,,
6,,6,,1,8,1,8,2,7,2,7,1-5[8:1]/8-4[8:1],,,,
1b/8b,,,,7-4[8:1]/8,,16,,78,,1,,2,4,3,5,4,
6,5,,1/2-5[8:1],,38,,12,,8,,7,5,6,4,5,3,4,
2,7,,45,,3,34,,6,65,,2,24,,7,57,,2,,13,,
7,,68,,1,8,2,7,3,6,4,,{12}
1b-5[8:1]/8b-4[8:1],1b/8b,1b/8b,1b/8b,,,
{16}7-4[8:1]/8,,16,,78,,1,,2,4,3,5,4,6,5,
7,5,7,4,6,3,5,2,4,1,1,2,2,3,3,4,4,5,5,6,6,
7,7,8,8,1,,8,,2,,7,,3,4,,6,5b,,,,
{8}6/8-3[8:1],,8b,6,,24,35,46,57,,3,24,,
68,17,28,1-6[8:1]/3,,1b,3,,57,46,35,
{16}24,,,,6,,1,8,1,,,68,,,13,,
8b-3[8:6]/6b-1[8:6]
{1},,E

Re:MASTER

(165)
{4}8>7[2:1],,,2-6[32:3],
{8}2/5-8[32:3],,1b/5b,4,,7,6/1,5,
4/2,,3,{16}4/6,5,{8},7,6,5,
3/4-1[32:3],,4b/8b,5,,2,3/8,4,
5/7,,6,{16}4,5,4h[8:1],,6,3h[8:1],,5,{8}2,
1-6[32:3]/4-7[32:3],,1b/4b,,,2/5,3/6,4/7,
5-2[32:3]/8-3[32:3],,5b/8b,,,5/6,4/7,3/8,
{16}2,1,2,,3/4b,,5,,7,8,7,,6/5b-7[32:3],,4-2[32:3],,
5-1[32:3],,4-8[32:3],,5,,4,,{32}5,6,7,8,1,2,3,4,{8}5w1[32:3],,
5b,,,,,5,4,3h[8:3],
,,1h[4:1],,8h[4:1],,6h[4:1],,
5qq3[4:1],,7<5[32:6],7,,,2,,
3/4pp6[4:1],,2>4[32:6],2,,,7,,
3/6,4,4/6,,6/5h[8:1],{16},5h[8:1],6,,5,,
6,,4,,4/6,,,,6/3h[8:1],,,3h[8:1],6,,3,,
6,,4,,4/6,,,,6/5h[8:1],,,5h[8:1],{8}6,5pp3[8:3],
6h[4:3],,,,,,{32}2,1,8,7,6,5,4,3,
{16}2/7,,8,,1/2,,,,3h[8:1]/4h[8:1],,,2h[8:1]/5h[8:1],,,1/6,,
8,,7,,6/5,,,,6h[8:1]/4h[8:1],,,3h[8:1]/7h[8:1],,,2/8,,
1,,2,,3/4,,,,7h[8:1]/4h[8:1],,,3h[8:1]/8h[8:1],,,1/2-6[32:3],,
2/1-5[32:3],,2b,,1b,,,,6/8,6/8,,4/5,4/5,,1/3,1/3,
2b-5[32:3],,8,,8,,7,,6h[8:1]/4h[8:1],,,5h[8:1]/7h[8:1],,,6/8,,
7-4[32:3],,1,,1,,2,,3h[8:1]/5h[8:1],,,2h[8:1]/4h[8:1],,,1/3,,
2qq7[2:1],,3,,3,,,,4h[8:1],,,5h[8:1],,,6,,
5/6,,5/6,,3/4,,3/4,,6b/8b,6/8,,1b/3b,1/3,,2b/7b,,
5,4,6,,5/7,,8,8h[8:1],,6,7,5,6,4,5,3,
4,2,3,,2/4,,1,1h[8:1],,6h[8:1],,3,3,,4/5-1[32:3],,
3/6,,5b/4-8[32:3],,3,,4b/5,,6b,,7,8/7b,,2,1/2b-5[32:3],,
,6,6b,,7b-4[32:3],,8,8b,,1,1b,,2/7,3/6,4/5,,
4,5,3,,2/4,,1,1h[8:1],,3,2,4,3b,5,4,6,
5,7,6,,5/7,,8,8h[8:1],,4,6b,4,6b,,3/7,,
2>4[16:1],4,1,,2b/5,,6,,7<5[16:1],5,8,,4/7b,,3,,
3/4,,8b,,6/5,,1b,,2h[8:1]/8h[8:1],,,3h[8:1]/7h[8:1],{8},4/6,
1b/5b,,6,8,6,8,6/8h[4:1],,
6,7,6,7,6,7,6/7h[4:1],,
6,8,,8,5,6,7,8,
1h[8:1],2h[8:1],{12}3h[12:1],4h[12:1],5h[12:1],{16}6,7,8,1,{4}2b-8[12:1],
7/2-6[12:1],7/2>4[12:1],{12}2/7,,7,{4}5/7-1[12:1],
2/7-3[12:1],2/7<5[12:1],{12}2/7,,2,{4}4/2-8[12:1],
7/2-6[12:1],7/2>4[12:1],{12}2/7,,7,{16}5/7,,,,
4h[8:1],,5,5,{12}3h[12:1],4h[12:1],5h[12:1],{4}6h[4:1],3b,
4-1[32:3]/8-5[32:3],4b/8b,{16}3/7,,6,5,7,4,8,3,
1,2,5,4,7,8,5,4,1h[8:1],,{24}2,3,4,{16}5,,3/7,,
1/6,,7,7,8,,1/3,,2,2,1,,8,8,1,,
7h[8:1],,5h[8:1],,4h[8:1],,2,2,,2/1-5[32:3],,7/8,,1b/2b,,,
3/7,,6,5,,4/7,,2/5,,4,3,4,2,5,1,6,
8,7,4,5,2,1,4,5,8h[8:1],,{24}7,6,5,{16}4,,2/6,,
1b/3b,,2,2,2,,6b/8b,,7,7,7,,4b,4,5,,
{32}3b/6b,4/5,,,,,2b/7b,3/6,4/5,,,,1bq8[32:7]/8bp1[32:7],2/7,3/6,4/5,{2},
{1}2/7,,,,
{16}6h[1:1],,5,,5,,,4,,,4h[8:1],,,,3,,
3h[1:1],,5,,5,,,6,,,6h[8:1],,,,7,,
7h[1:1],,4,,4,,,3,,,3h[8:1],,,,2,,
{4}2p1[2:1],7q8[4:1],,,
{16}2b/7b,3,4,,5/6,,8,8h[8:1],,5,7,4,6b,3,5,2,
4,1,3,,2/4,,1,1h[8:1],,5,3b,4,2b,,1/6,,
7<5[16:1],5,8,,4/7b,,3,,2>4[16:1],4,1,,2b/5,,6,,
5/6,,1b,,3/4,,8b,,7h[8:1]/1h[8:1],,,2h[8:1]/8h[8:1],,,4/6,,
3b/7b,6,5,,3/4,,1,1h[8:1],,4,2,5,3b,6,4,7,
5,8,6,,5/7,,8,8h[8:1],,4,6b,5,7b,,3/8,,
2>4[16:1],4,1,,2b/5,,6,,7<5[16:1],5,8,,4/7b,,3,,
{8}2qq7[16:7],,6>3[16:3],,,,,,
2b/8b,,,,5,4,3,2,
1b/8b,,4h[4:1],,5h[4:1],,6h[4:1],,
8b,,1q2[32:9],1,,,,,
7b,,6p5[32:9],6,,,,,
6b/3,5,3/6,4,6/3,5,3/6,4,
4/5b,3,4/5,6,4/5,3,4/5,6,
4b/7h[8:1],8h[8:1],1h[8:1],2h[8:1],3b,4/5,6/7,1/8,
{16}2b,7,2,7,{32}1,2,3,4,5,6,7,8,{16}1bw5[32:3],,,,1,,,,
3b/7b,,6,5,,7,8h[8:1],,6,6,{24}1,2,3,{16}5,5,3,4,
5/2,,3,4,,2,1h[8:1],,3,3,{24}8,7,6,{16}4,4,6,5,
4/7,,3h[8:1]/5h[8:1],,,4h[8:1]/6h[8:1],,,1h[8:1]/2h[8:1],,,7h[8:1]/6h[8:1],,,1/8,,
{24}7,6,5,1/4,,,2,3,4,{16}5/8,,7,4,5,2,6,3,7,2,
{12}1bs5[32:3]/8bz4[32:3],1b/8b,1b/8b,{16}1b/8b,,,,2h[8:1],,5,3h[8:1],,6,4,4,
8,8,7,7,6,6,3,3,2,2,1,1,{32}7,6,5,4,3,2,1,8,
{16}7bp2[16:3],,1,,1,,1,,1h[8:1],,,3h[8:1]/4h[8:1],,,5h[8:1]/6h[8:1],,
{4},,,,
3/4-1[32:3],{24}4b/8b,7,6,{8}5,,2/4,5/6,3/4,
8/6h[4:1],,{24}7,8,1,{8}2,,3/4,1/2,7/8,
6/5-8[32:3],,{24}5b/1b,2,3,{8}4,,5/7,3/4,5/6,
1/3h[4:1],,6,{16}2/7,2/7,2h[8:1]/7h[8:1],,,6h[8:1]/8h[8:1],,,1/3,,
{1}1bq3[4:3]/3b<2[4:3],
E

  • リマスター持ってる人いますか? -- 無名 (2022-09-21 00:26:59)
  • 動画見て解析してみよう(ニッコリ) -- 名無しさん (2023-02-27 21:06:21)
  • リマスター欲しいだけど -- 名無しさん (2023-05-04 19:35:15)
  • リマスター手に入れて何すんの? -- 名無しさん (2023-06-04 17:21:33)
  • Re:MASTER、アーティスト、難易度、譜面制作者を追加しました -- のんきのんき (2026-01-08 09:49:45)
  • Re:MASTER譜面のノーツの配置ミス、SLIDEの速度の修正を行いました。 -- けもがみ (2026-02-26 05:59:43)
名前:
コメント:

タグ:

+ タグ編集
  • タグ:
最終更新:2026年10月04日 21:10