| アーティスト |
SOUND HOLIC feat. Nana Takahashi |
EASY
BASIC
ADVANCED
EXPERT
MASTER
(160)
{4}4v6[8:3]/5hx[4:5],,,,6,6,5,4,
4h[4:5]/5v3[8:3],,,,3,3,4,5,
5v7[8:3]/6h[4:5],,,,7,7,5,4,
3h[4:5]/4v2[8:3],,,,2,2,4,5,
5/6hx[2:1],,7,B2/E2,3h[2:1]/4,,2,B7/E8,
4/6h[4:1],5,3h[4:1]/5,4,4/5h[4:1],,1-5[8:1],1b,
{8}4hx[4:1]/7,7,6,5,3/4hx[4:1],3,2,1,1hx[4:1]/8,8,7,6,4-8[8:1]/5x,6,7,,
2/5hx[4:1],2,3,4,5hx[4:1]/6,6,7,8,1hx[4:1]/2,2,3,4,5^2[8:1]/6x,7,8,,
1hx[4:1]/6x,6,7,8,1hx[4:1]/2,2,3,4,5/6hx[4:1],5,4,3,2-5[8:1]/5x,6,8,,
4/6x,5,4,2,3x/5,4,5,7,1x^6[8:1],1,5-8[8:1],5,4x,3,12,,
3x/5,4,5,7,4/6x,5,4,2,8x^3[8:1],8,4-1[8:1],4,5x,6,78,,
2x/4,3,5,4,4/5x,36,27,27,{16}1x,8,1,8,1,8,1,8,
{32}1,2,3,4,5,6,7,8,{4}1b,
(152)
{0.5}Ch[2:3],
{24}E3,B3,,,,,,,,,,,E7,B6,,,,,,,,,,,B3,E4,,,,,,,,,,,B6,E6,,,,,,,,,,,
{4}4h[2:1]/5,,3h[2:1],,B3/E3,B5/E5,B7/E7,,{1}4h[1:1]/5h[2:1],5p4[2:1],
(160)
{8}3h[4:1]/5,,4-6[8:1],,2,2,3,,4/6h[4:1],,5-3[8:1],,7,7,6,,
{4}4h[2:1]/5,B3,5h[2:1],B6,4h[2:1],E5,C,18,
{8}6,5,47,,3,4,{4}2-6[8:1]/5,6-2[8:1],7,3b/8b,
{8},2-5[8:1],,6,6h[4:1],,5^2[8:1],5,7,,E8,B3/E4,E2,B5/E6,Cf,,,,
{4}3-5[8:1]/8,3/7-3[8:1],7b/Cf,{8},1,1,24,5>1[4:1],6,7,,,,
{4}1/6-4[8:1],2-6[8:1]/6,2b/Cf,{8},8,8,57,4,3,24,,45,,
{4}3^6[8:1]/6,3/8v3[8:1],8b/Cf,{8},2,2,34,5,6,47,8,18,,
{2}2-4[8:1]/4-6[8:1],{12}7x,5x,6x,3x,4x,2x,{4}8h[4:1],1>5[4:1],,
{8},6,{16}5h[8:1]/7h[8:1],,,2h[8:1]/4h[8:1],,,{8}56,3b/8b,,,,
{16}6,5,7,,36,,2,1,,3,4,,18,,7,5,6,4,5,,16,,7,8,,4,5,,12,,2,4,
3,5,4,,38,,6,5,,1,8,,34,,6,5,7,,3,4,2,,8,1,8,,2,7,3,6,4,5,
{8}4^1[8:1],5,46,6,7^4[8:1],8,17,1,2^7[8:1],3,24,4,5h[4:1],,1b,,
4-8[8:1]/6,5,34,2-6[8:1],1,28,{4}7<2[4:1],4b/7b,,{16}18,,,46,46,,3,5,
2,1,2,,38,,6,5,,2,1,,34,,7,5,6,5,7,,16,,3,4,,7,8,,12,,7,5,
6,,2,4,3,,5,4,5,,1,8,2,7,3,6,{8}45,2b/7b,2b/7b,,
{16}3hx[8:1]/5hx[8:1],,,4hx[8:1]/6hx[8:1],,,3x/7x,,
26,,7,8,7,,35,,2,1,2,,{4}4/6<4[4:1],1b,,
{16}7h[8:1]/8h[8:1],,,1h[8:1]/2h[8:1],,,38,,
{8}4-8[8:1],4,5-1[8:1],5,3^6[8:1],3,7,7,{16}1b,8,2,8,1b,7,2,8,
{32}1b,2,3,4,5,6,7,8,1b,2,3,4,5,6,7,8,{1}1bw5[2:1]/Cf,
{8}6x-4[8:1],6,1,2,3x-6[8:1],3,6,7,8x,8,57,6,4/5x-1[8:1],3,25,,
2x,8,17,6h[4:1],5x,4,28,3h[4:1],4x,5,17,6,3/5x,2,48,,
3b-5[8:1],3,8,7,6x-3[8:1],6,3,2,1x,1,24,3,4x-8[8:1]/5,6,47,,
7x,1,28,3h[4:1],4x,5,17,6h[4:1],5x,4,28,3,4x/6,7,15,,
6x-4[8:1],6,4,3,2x-6[8:1],2,6,7,8x-2[8:1],8,2,3,4x-8[8:1],4,8b,,
6x,57,3,24,18,27,6,5,{16}3x,4,3,4,2,5,2,5,3x,6,3,6,4,7,4,7,
3x,8,3,8,2,1,2,1,{32}2x,3,4,5,6,7,8,1,{4}26,45,
{8}3b/5b,4b/6b,2b/5b,4b/7b,1b-5[8:1]/8b-4[8:1],3b/6b,
{1}1b/8b,,,,
E
Re:MASTER
最終更新:2026年10月01日 19:30