BASIC
ADVANCED
EXPERT
MASTER
(196)
{8}3-5[8:1]/6h[8:11],,,,,5,5,,5,,4,4,,46,46,,
3h[8:11]/6-4[8:1],,,,,4,4,,4,,5,5,,35,35,,
5,5,4,6,4,4,5,3,6,6,5,7,3,3,5,,
2h[4:1]/7h[4:1],,,,18,18,,2x/5x,,4x/5x,,5x/6x,4x/7x-3[8:1],,3b,,
2h[4:1],,4-7[8:1],4,,1,1,,7h[4:1],,5-2[8:1],5,,8,8,,
2h[4:1],,4-8[8:1],4,,1,1,,28,28,3,4,5-1[8:1]/6h[4:1],,,,
{4}8^5[8:1],B2/B3,1^4[8:1],B5/B6,8^5[8:1],B3/B4,2h[4:1],1,
{8}3,4,25,6,5,4>6[8:5]/7,,6x,,,,,,,2x/7x,,
46,,36,3,36,,56,,36,,46,4,46,,16,,3x/6,,27,2,{4}27,3-8[4:1]/6,6,6,1h[4:1]/6,6,
26,{8}3x/5x,5,35,,36,,34,,37,7,37,,35,,38,,34,4,3/4-6[8:1],,2,2V48[4:1],,7,7^4[8:1],,1b,,2,,
3x/5x,,34,4,34,,36,,35,,37,7,{4}37,3/4<8[4:1],3x,3,38,36,37,{8}35,5,3x/5h[4:1],,3x,,
18,27,{4}3b/6x,56,4>8[4:1]/6,6,6,68,36,26,{8}46,4,46,,26,,45,,2,24,,7,5<4[4:13]/7,,
{4}8h[2:5],,,,,,,,,,,Ch[4:3],,,B2/B3/B6/B7,{8},1,
{4}18,2-4[8:1]/4,6,5/7-5[8:1],3,1/4-8[8:1],3h[4:1],8x,
{8}57,57,,24,24,,78,1x/6x,,5x/7x,,3x/4x,2x-6[8:1]/5x,,2b/6b,,
8,7,57,4,3,2/4-7[8:1],,1-5[8:1],,8x,,3^8[8:1]/7,6,5,,6,
46,3,25,1,24,3-8[8:1]/5,6,7-4[8:1],,2<5[4:1],,5b,,8x,8x,,
57,6,45,3,2,{4}2-5[8:1]/8-4[8:1],2x/8x,1-5[8:1]/7-4[8:1],1x/7x,2b/6b,
{8}45,6-1[8:1],6,2^5[8:1],2,7,7h[4:1],,1x,,56,4/7-4[8:1],,17,,2b/8b,,
{4}1>5[4:1],5<1[4:1],1,5,5/7-4[8:1],{8}4,3,2h[4:1],,1,,
{4}1/8>4[4:1],4<8[4:1],8,4,26,{8}3x/7x,3xv1[8:1]/7xv5[8:1],,,,,
{4}2>6[4:1],6<2[4:1],2,6,48,{8}2x/6x,2bv4[8:1]/6bv8[8:1],,,,,
2x/6x,{16}3,4,3,,6,5,6,,3,4,2,,6,5,{4}7h[2:1],8<1[2:1],,,
{1}Ch[1:2],,1p8[4:3],5p4[4:3],Ch[1:2],,8<1[4:3],{2},45,
4h[4:7]/5h[4:1],5h[4:1],6h[4:1],7h[4:1],3h[4:1]/5h[4:7],3h[4:1],2h[4:1],1h[4:1],
{4}6/Ch[1:2],6,6,6,7,7,7,7,8,8,{8}17,17,,
{4}B3/B4/E3,B5/B6/E5,B7/B8/E7,B1/B2/E1,B3/B6/Cf,,{8},4h[8:1]/5h[8:1],,,,
2b/6b,3,47,8,1,2/4-7[8:1],,1-5[8:1],,8x,,3^8[8:1]/7,6,5,,6,
46,3,12,8,57,4/6-1[8:1],3,2-6[8:1],,7>5[4:1],,5b,,1x,1x,,
24,3,45,6,17,{4}1-5[8:1]/7-4[8:1],1x/7x,2-5[8:1]/8-4[8:1],2x/8x,3b/7b,
{8}45,3-8[8:1],3,7^4[8:1],7,2,2h[4:1],,8,,56,5-1[8:1]/6,,8,,3x/7x,,
2b/5b,4b/7b,1b/6b,3b/8b,4b/6b,2bv5[8:1]/8bv5[8:1],,2b/8b`Cf,,3x/7x,,18,27,36,,34,
2-6[8:1],2,5-1[8:1],5,3-7[8:1],3,6,6h[4:1],,5^2[8:1]*^8[8:1],,,,3x/7x,3b/7b,,
57,8,24,1,18,{4}7-4[8:1]/8v3[8:1],7x/8x,1-6[8:1]/2v5[8:1],1x/2x,4b/7b,
{8}78,6-2[8:1],6,4-8[8:1],4,8,7,6,2xqq2[4:1]/6xqq6[4:1],{4},,,3b/7b,
{8}25,1,24,3,2-5[8:1]/4,,5,6,8-4[8:1],,4,3,2h[4:1],,1,,
47,8,57,6,5-1[8:1]/7,,8,7,2h[4:1]/6,,1,3/8-4[8:1],,1,1b,,
25,3,25,6,47,8,18,1xq5[8:1]/2x^5[8:1],,1x/2x,,78,16,25,,56,
7-3[8:1],7,4-8[8:1],4,8,7,6,1w5[8:3],{4},,,2b/8b,
{8}17,6,47,3,25,1,18,{4}2x/7x,4xqq5[8:3]/5xpp4[8:3],,,
{8}27,27,3>6[8:5]/6,{1}45,{4}35,{2}3p6[1:1]/5h[2:3],,,
{4}6,6,{24}6-2[8:1],7,8,1,2,3,{4}4b/6b,
1x/4x,{8}35,3,37,7,57,,3/4^7[8:1],3,3,3,3/4-8[8:1],,1,,
2x/7x,,56,6,26,2,24,,5^2[8:1]/7,7,7,7,5-1[8:1]/6hx[4:1],,,,
{4}2/8^5[8:1],B4/B5,3^8[8:1],B7/B8,6^3[8:1],B2/B3,1-5[8:1],8x,
{8}6,5,47,{16}3,3,4,,{4}2-6[8:1]/5,2x/8x,2x/4x,5x/7x,5xv2[8:1]/6x-2[8:1],
{1}5b/6b`Cf,,,,,,,,
E
Re:MASTER
最終更新:2026年04月05日 22:31