| アーティスト |
作曲:カジャ 作詞:傘村トータ 編曲:ねじ式 調声:シリア |
BASIC
(178.0){1},
{1}1,
{1}1,
{1}2,
{1}2,
{1}3,
{1}3,
{1}4/5,
{1}4/5,
{1}5,
{1}5,
{1}6,
{1}6,
{1}7,
{1}7,
{1}1/8,
{1}1x/8x,
{2}8,8,
{1}8,
{2}7,7,
{1}7,
{2}6,6,
{1}6,
{2}5,5,
{1}4/5,
{2}4,4,
{1}4,
{2}3,3,
{1}3,
{2}2,2,
{1}2,
{2}1,1,
{1}1b/8b,
{1}7-3[4:3],,
{1}2-6[4:3],,
{1}8-4[4:3],,
{1}3,
{1}2,
{1}1b,
{4}8b,8,8,,
{1}7,
{4}6,6,6,,
{1}5,
{4}4,4,4,,
{1}3,
{4}2,2,2,,
{1}1x/8x,
{2}1,1,
{2}2,2,
{2}3,3,
{1}4/5,
{2}5,5,
{2}6,6,
{2}7,7,
{1}1/8,
{1}1-4[4:3]/8-5[4:3],,
{1}3h[2:1],
{2}3,3,
{1}4h[2:1],
{2}4,4,
{1}5h[2:1],
{2}5,5,
{1}6h[2:1],
{1}5/6,
{1}E6,
{1}E5,
{1}E4,
{1}E3,
{1}E2,
{1}E1,
{1}E8,
{1}E7,
{1}E6,
{1}C1f,
{4}1,1,1,,
{4}2,2,2,,
{4}3,3,3,,
{4}4,4,4/5,,
{4}5,5,5,,
{4}6,6,6,,
{4}7,7,7,,
{4}8,8,1/8,,
{1}7h[2:1],
{1}6h[2:1],
{4}5,5,5/6,,
{4}4,4,3/4,,
{1}3h[2:1],
{1}2h[2:1],
{1}1/8,
{1}E2/E8,
{1}B2/B7,
{1}B3/B6,
{1}Chf[8:7],,
{2}1b,1,
{2}2,2,
{2}3,3,
{2}4,4,
{2}5,5,
{2}6,6,
{2}7,7,
{2}1x/8x,1x/8x,
E
ADVANCED
(178.0){1},
{2}3x,3/4,
{2}6,5/6,
{2}3,3/4,
{4}6,6,5/7,,
{2}7,7/8,
{2}2,1/2,
{2}7,7/8,
{4}1,1,2x/7x,,
{4}3x,3,4,,
{4}6,6,5,,
{4}3,3,4,,
{4}6,6,5/7,,
{4}7,7,8,,
{4}2,2,1,,
{4}7,7,8,,
{4}1,1,2x/7x,,
{1}3h[2:3],
{2}4,4,
{1}6h[1:1],
{2}5,4x/6x,
{1}7h[2:3],
{2}8,8,
{1}1h[2:1]/8h[2:1],
{1}2x/7x,
{2}3h[1:1],4,
{2}4,3x/4x,
{2}6h[1:1],5,
{2}5,4x/6x,
{2}7h[1:1],8,
{2}8,7x/8x,
{1}1-4[2:1]/8-5[2:1],
{1}3x/6x,
{4}3,3,3,,
{4}4,4,4,,
{4}5,5,5,,
{4}6,6,6,,
{4}7,7,7x/8x,,
{4}8,8,1x/8x,,
{4}7,7,7x/8x,,
{4}2,2,1x/2x,,
{4}1x/8x,1x/8x,2b/7b,,
{4}2,2,1,1,
{4}8,8,1/7,,
{4}7,7,8,8,
{4}1,1,2/8,,
{4}3,3,4,4,
{4}5,5,4/6,,
{4}6,6,5,5,
{4}4,4,3/6,,
{4}2,2,1/2,1/2,
{4}2,1,2/8,,
{4}7,7,7/8,7/8,
{4}7,8,1/7,,
{4}6,6,5/6,5/6,
{4}6,5,4/6,,
{4}4,4,5,5,
{4}4/5,4/5,3/6,,
{2}3h[2:1],4h[2:1],
{1}5h[8:3],
{1}6-1[2:1],
{2}2,1/2,
{1}2-5[2:1],
{4}6,6,5/7,,
{1}7-4[2:1],
{2}3,3/4,
{1}3-6[2:1],
{4}7,7,1x/8x,,
{2}B2,B3,
{2}B4,B5,
{2}B6,B7,
{1}C1,
{1}B4/B5,
{1}B3/B6,
{1}B2/B7,
{1}B1/B8,
{1}Chf[1:1],,
{4}7,7,8,8,
{4}1,1,2/8,,
{4}2,2,1,1,
{4}8,8,1/7,,
{4}6,6,5,5,
{4}4,4,3/5,,
{4}3,3,4,4,
{4}5,5,3/6,,
{4}7,7,7x/8x,,
{4}2,2,1x/2x,,
{4}2,2,1,1,
{4}8,8,2x/7x,,
{4}6,6,5/6,5/6,
{4}6,5,4/6,,
{4}4,4,5,5,
{4}4/5,4/5,3/6,,
{1}3>6[4:5],,
{1}6<3[4:5],,
{4}3x,3,4,,
{4}6,6,5,,
{4}3,3,4,,
{4}6,6,5/7,,
{4}7,7,8,,
{4}2,2,1,,
{4}7,7,8,,
{4}1/8,1/8,2x/7x,2x/7x,
E
EXPERT
(178.0){1},
{4}3,3/4,3,2/4,
{4}6,5/6,6,5/7,
{4}3,3/4,3,2/4,
{4}6,5/6,6,5/7,
{4}2,1/2,2,1/3,
{4}7,7/8,7,6/8,
{4}2,1/2,2,1/3,
{4}7,7/8,1/8,2/7,
{8}2/4,,3,3,5,,4/6,,
{8}5/7,,6,6,4,,3/5,,
{8}2/4,,3,3,5,,4/6,,
{8}5/7,,6,6,4,,3/6,,
{8}2h[8:3],,4,4,3/5,,4/6,,
{8}7h[8:3],,5,5,4/6,,3/5,,
{8}1h[8:3],,3,3,2/4,,3/5,,
{8}8h[8:3],,6,6,5/7,,3/6,,
{4}3h[2:3],4,,6,
{4},5,,3/4,
{4}6h[4:7],3,,5,
{4}7x,8x,1x,2x,
{4}2h[2:3],3,,5,
{4},4,,2/4,
{4}7h[2:1],5,,5/7,
{4}2h[2:1],4,,2/4,
{4}1/6h[4:7],2,1,2,
{4}3,2,3,2,
{4}8/2h[4:7],7,8,7,
{4}6x,5x,4x,3x,
{4}4/7h[4:7],3,4,3,
{4}2,3,2,3,
{4}2h[2:1],4,,2/4,
{4}5,5/7,4,2/4,
{4}5,5h[2:1],6,6h[2:1],
{4}7,7h[2:1],8,8h[2:1],
{4}1,1h[2:1],2,2h[2:1],
{4}3,3h[2:1],4,4h[4:1],
{4}5h[4:1],6h[4:1],7h[4:1],8h[4:1],
{4}1h[4:1],2h[4:1],3h[4:1],4h[4:1],
{4}5h[4:1],7h[4:1],1h[4:1],3h[4:1],
{4}5h[4:1],2,1/8,2/7,
{4}3h[4:1]/6h[4:1],,1x/8x,2b/7b,
{4}2-5[8:1],8-4[8:1],1-5[8:1],7-4[8:1],
{8}3,,2/5,2/5,,4/7,4/7,,
{4}2-5[8:1],6,7-4[8:1],3,
{8}2,,5/7,5/7,,2/4,2/4,,
{4}1/2h[4:1],4,8/7h[4:1],5,
{8}1/2h[4:1],,5,5,,4/6,4/6,,
{4}7p3[8:1],1,2q6[8:1],8,
{8}7,,3/8,3/8,,1/6,1/6,,
{4}7-4[8:1],1-5[8:1],8-4[8:1],2-5[8:1],
{8}6,,4/7,4/7,,2/5,2/5,,
{4}7-4[8:1],3,2-5[8:1],6,
{8}7,,1/3,1/3,,6/8,6/8,,
{8}8/7h[4:1],,5,,1/2h[4:1],,5,5,
{8},4/6,4/6,,7,7,1,,
{4}2q6[8:1],8,7p3[8:1],1,
{8}2,,1/6,1/6,,3/8,3/8,,
{8}5/6,,5/6,,4/7,,2/5,2h[4:1]/5h[4:1],
{8},,,3h[8:3]/7h[8:3],,,,,
{8}3,,2/4,,8,8,1/7,,
{8}6,,5/7,,1,1,2/8,,
{8}3,,2/4,,8,8,1/7,,
{8}6,,5/7,,2,1,3/8,,
{8}7,,6/8,,4,4,3/5,,
{8}2,,1/3,,5,5,4/6,,
{8}7,,6/8,,4,4,3/5,,
{8}2,,1/3,,8,1,2x/7x,,
{4}B1,B2,B3,B4/E4,
{4}B5,B6,B7,B8/E8,
{4}B1,B2,B3,B4/B5,
{4}E2/E8,,B6/E7,B3/E3,
{4}7hx[4:3],B8,C1,B4,
{4}2hx[4:3],B1,C1,B5,
{4}7hx[4:3],B1/B8,C1,B4/B5,
{4}E2/E8,B2/B7,B3/B6,E4/E6,
{1}Chf[1:1],
{4},,,1x/8x,
{4}2-5[8:1],8-4[8:1],1-5[8:1],7-4[8:1],
{8}3,,2/5,2/5,,3/7,3/7,,
{4}2-5[8:1],6,7-4[8:1],3,
{8}2,,5/7,5/7,,1/3,1/3,,
{4}1/2h[4:1],4,8/7h[4:1],5,
{8}1/2h[4:1],,3,3,,4/6,4/6,,
{4}7p3[8:1],1,2q6[8:1],8,
{8}7,7,,3/8,,1/6,1/6,,
{2}2h[4:1]/1-5[8:1],7h[4:1]/8-4[8:1],
{8}6,,3/5,3/5,,4/6,4/6,,
{8}7,,3/4,3/4,,5/6,,4h[2:1]/7h[2:1],
{8},,,,,8,8,,
{8}8/7h[4:1],,5,,1/2h[4:1],,4,4,
{8},3/5,3/5,,2,2,8,,
{8}1^4[8:1],,5,,5^8[8:1],,1,1pp5[2:1]*qq5[2:1],{1},
{2}4h[4:1]/7h[4:1],2h[4:1]/5h[4:1],
{1}4h[2:1]/8h[2:1],
{2}1-5[8:1]/2-5[8:1],7-4[8:1]/8-4[8:1],
{4}C1f/B2/B3/B6/B7,,,1x/8x,
{8}5/7,,6,6,4,,3/5,,
{8}2/4,,3,3,5,,4/6,,
{8}5/7,,6,6,4,,3/5,,
{8}2/4,,3,3,5,,3/6,,
{8}7h[8:3],,5,5,4/6,,3/5,,
{8}2h[8:3],,4,4,3/5,,4/6,,
{8}8h[8:3],,6,6,5/7,,4/6,,
{8}1h[8:3],,3,3,2/4,,3x/6x,3x/6x,
E
MASTER
(178)
{8}3,5,5,2,6,6-4[8:1],,4,,2,5,4h[4:1]/6,,7,3,3,
5,4,4,6,3,3-5[8:1],,7,,6,6,1-4[8:1],,8,8,,
7,4,4,6,3,3-5[8:1],,5,,7,4,3/5h[4:1],,2,6,6,
1,5,5,2,7,7-4[8:1],,3h[4:1],,2h[4:1],,1,,78,78,,
1b,7,6,3,6,2h[4:1]/6-4[8:1],,,,1,8,7h[4:1],,8,1,2,
6,2,3,7,3,4-8[8:1]/8h[4:1],,,,1,7,4/6V48[4:1],,2,2,,
3,7,6,2,6,1h[4:1]/5-8[8:1],,,,2,3,4h[4:1]/6,,7,6,35,
2,7,6,3,5,4h[4:1]/6p3[4:3],,,,4,,2,,2,28,,
{16}1h[16:3],,,7h[16:3],,,{8}5-1[8:1],,6,6,,
{16}8h[16:3],,,2h[16:3],,,{8}4-8[8:1],,3,3,,
{16}1h[16:3],,,7h[16:3],,,{8}5-1[8:1],,6,6,,{4}7-4[8:1],1-5[8:1],8-4[8:1],2x,
{16}1h[16:3],,,7h[16:3],,,{8}5-1[8:1],,7,4,,
{16}8h[16:3],,,2h[16:3],,,{8}4-8[8:1],,2,5,,
{16}1h[16:3],,,7h[16:3],,,{8}5-1[8:1],,7,4qq8[2:1],,1h[8:3],,,,,1,17,,
{16}6h[16:3],,,5,{8}7-4[8:1],4q1[8:1],,2,3,,
{16}3h[16:3],,,4,{8}2-5[8:1],5p8[8:1],,7,6,,
{16}6h[16:3],,,5,{8}7-4[8:1],4q1[8:1],,2,3,,{4}2-5[8:1],6-1[8:1],3-8[8:1],7b,
{16}6h[16:3],,,5,{8}7-3[8:1],3q8[8:1],,1,2,,
{16}3h[16:3],,,4,{8}2-6[8:1],6p1[8:1],,8,7,,
{16}6h[16:3],,,5,7,,2,,{4}2-6[8:1],25,8-4[8:1],48,2b/6b,45,
{16}7,,3,4,3,2,3,,7,,6,,15,,,,2,,6,5,6,7,6,,2,,3,,48,,,,
7,,3,4,3,2,3,,7,,6,,58,,,,2,,6,5,6,7,6,,2,,3,,14,,,,
7,,3,5,4,2,4,,2-6[8:1],,3,,,,,,2,,6,4,5,7,5,,7-3[8:1],,6,,,,,,
18,,2,4,3,5,4,6,5,7,4,6,3,5,2,4,
{8}1x-3[8:1],1x-7[8:1],1x-5[8:1],1x^4[8:1],1x^6[8:1],1x,1x,,
5x,5x,{16}6,5,,3,{8}4,46,2^4[8:1]/8^6[8:1],,
{4}2b-6[8:1]/8b-4[8:1],28,1x/5x,3pp2[2:1]/7pp6[2:1],3x/7x,,{8},8,17,26,
{4}3/5-1[8:1],2-5[8:1],7-3[8:1],4h[4:1],1x,{8}6,5b/7b,,38,27,16,
{4}1x-5[8:1]/6x-8[8:1],16,1x-5[8:1]/4x-2[8:1],14,{8}1x^6[8:1]/6x,,5,5-1[8:1],,4,4,,
{4}5-1[8:1]/7-5[8:1],57,2/4-8[8:1],3/4pp8[2:1]*qq8[2:1],,,{8},1,2b/7b,,
{4}5-1[8:1],3-8[8:1]/5,3/6-1[8:1],3V14[8:3]/3pp4[8:3],,,{8},18,
7-3[8:1],7,2-5[8:1],2,6-1[8:1],6,3,3,4,2^5[8:1]/5,,8,8w4[8:1],,8b,,2x/6x,,
{4}5/7-3[8:1],1-6[8:1],5-1[8:1],{8}4,3h[4:1],,4-7[8:1],4,1^4[8:1],1,8,7,6,
{4}1/5pp5[4:1]*qq5[4:1],,,{8}37,3x/7x,,2-5[8:1],4,2,8^3[8:1]*^5[8:1],,8b,,
7h[4:1],,5h[4:1],,4h[4:1],,1,1q7[8:1],,8-4[8:1],,48,,26,2b/6b,,
{16}3h[16:3],,,4h[16:3],,,{8}1h[4:1],,8,7,6,{16}3,4,{8}3,8,1,
24,35,46,5h[4:1]/7,,8,7,1,8,6,7,8,1h[4:1]/3,,8,27,,8x,8x,,
24,3,45,5/6h[2:1],,8,1,2,36,47,36,1h[4:1]/5,,8,27,3/6h[4:1],,
5,4,3,28,1/7<2[2:1],68,5h[8:7]/7,,,,,,1x,1x,,
3x/5x,,8,8,,6,6-3[8:1],5,7h[4:1],,1,1,,3,3-6[8:1],4,
2h[4:1],,8,8,,7,6,5^2[8:3],{4}5h[2:1],,,1-5[4:1]/7,
5^8[4:1],8-4[4:1],4^2[4:1],5-1[4:1],1^4[4:1],4-8[4:1],8^5[4:1],5,
3-7[8:1],3hx[4:1],1-5[8:1],1hx[4:1],7-2[8:1],7hx[4:1],4-8[8:1],4hx[4:1],
3-7[8:1],3x^8[4:1],8x^5[4:1],5x^2[4:1],2b-6[8:1],4x,{8}5,46,
{4}2-6[8:1]/8-6[8:1],2v5[8:1]/8v5[8:1],2-4[8:1]/8-4[8:1],
2b/8b,1pp6[2:1]/5,18,{8}5x,5x,,1,17,2,
{4}3^5[8:1]/5,3/7-3[8:1],1-7[8:1]/7,15,3/7^2[8:1],{8}5,5,,1,8,7,
{4}4/6^4[8:1],68,2^8[8:1],2pp5[8:3]/8qq5[8:3],,,
{8},1,1-5[8:1],2,1x/3x,,8-4[8:1],7,6x/8x,,3x/5x,46,57,6/8w4[8:1],,8x,,
1b/8b,1b/8b,2b/7b,{4}3b/6b^3[8:1],B1/B8,2/7^2[8:1],B4/B5,
{8}B3/E3,B7/E7,B5/E5,C,,18,18,,5/7-2[8:1],,3,
{4}3^6[4:1],6qq3[8:5],Cf,,,{8}1,1,28,
{4}3/4-1[8:1],2-6[8:1]/4,26,{8}8,1-5[8:1]/7,,7-2[8:1],7,4>8[8:1],4,8,7,6,
1/5-8[8:1],,3-7[8:1],,1,1<2[2:1],,Cf,,,,,1,1,27,,
{4}8x/B3/E3,1x/B6/E7,2b/7b,{8}4x/5x,4x/5x,,{16}1,8,1,8,1,8,2,7,1,8,2,7,1,8,
{4}2x/7x,57,{8}24,24,,B2/B3/B4/B5/B6/B7/Cf/E5,,,1x/8x,1x/8x,,45,2b/7b,,
2-5[8:1],5,2,7-4[8:1],4,7,3,2h[4:1],,1^6[8:1],2,1,,34,5,6,
7-4[8:1],4,7,2-5[8:1],5,2,6,7^1[8:1]*^4[8:1],,7,,2-6[8:1],,28,8b,,
6-1[8:1],1,6,3-8[8:1],8,3,7,6h[4:1],,5^2[8:1],7,5,,78,1,2,
3-8[8:1],8,3,6-1[8:1],1,6,2,3,4/7b,8,1,2b/5,3,4-1[8:1]/8-5[8:1],15,
{1}4b/8b,,,,,,
E
Re:MASTER
最終更新:2026年04月07日 21:46