アットウィキロゴ

敗北の少年

アーティスト kemu

BPM EASY BASIC ADVANCED EXPERT MASTER Re:MASTER
185 3 5 9 11+ 13 -

EXPERT MASTER Re:MASTER
譜面制作者 小鳥遊さん はっぴー -

EASY


BASIC

(185.0){1},
{2}1,1,
{2}2,2,
{2}3,3,
{4}4,4,4,,
{2}5,5,
{2}6,6,
{2}7,7,
{4}8,8,8,,
{1}1h[2:1],
{1}1h[2:1],
{1}2h[2:1],
{2}2,2,
{1}3h[2:1],
{1}3h[2:1],
{1}4h[2:1],
{1}4/5,
{2}5,5,
{1}5,
{2}6,6,
{2}6,5/6,
{2}7,7,
{1}7,
{2}8,8,
{2}8,1/8,
{1}8-5[4:3],,
{1}1-4[4:3],,
{2}8,8,
{2}7,7,
{2}6,6,
{1}4b/5b,
{4}4,4,4,,
{4}3,3,3,,
{4}2,2,2,,
{4}1,1,1,,
{4}8,8,8,,
{4}7,7,7,,
{1}6h[2:1],
{2}4/5,4/5,
{4}5,5,5,,
{4}6,6,6,,
{4}7,7,7,,
{4}8,8,8,,
{1}1h[2:1],
{1}8h[2:1],
{1}1-5[4:3],,
{2}8,8,
{2}1,1,
{1}8-4[4:3],,
{2}1,1,
{2}8,8,
{1}7h[2:1],
{2}7,7,
{1}6h[2:1],
{2}6,6,
{2}5,5,
{2}4,4,
{2}3,3,
{2}2,2,
{1}1-4[4:3],,
{1}8-5[4:3],,
{2}1,1,
{2}2,2,
{2}3,3,
{1}4b/5b,
{1}4b/5b,
{4}5,5,5,,
{4}6,6,6,,
{4}7,7,8,8,
{4}1,1,1/8,,
{4}2,2,2,,
{4}3,3,3,,
{1}3h[2:1]/4h[2:1],
{2}4/5,4/5,
{4}4,4,4,,
{4}3,3,3,,
{4}2,2,1,1,
{4}8,8,1/8,,
{1}1h[1:1]/8h[1:1],
{2},1b/8b,
{4}1,1,2,2,
{4}3,3,3/4,,
{4}5,5,6,6,
{4}7,7,7/8,,
{4}2,2,1/2,,
{4}7,7,7/8,,
{1}1-5[4:3],,
{4}5,5,6,6,
{4}7,7,7/8,,
{4}1,1,2,2,
{4}3,3,3/4,,
{1}5h[2:1]/6h[2:1],
{1}3h[2:1]/4h[2:1],
{1}4h[2:1]/6h[2:1],
{1}3h[2:1]/5h[2:1],
{4}4,4,4,,
{4}3,3,3,,
{4}2,2,2,,
{4}1,8,1,,
{4}8,8,8,,
{4}7,7,7,,
{4}6,6,6,,
{4}5,4,5,
E

ADVANCED

(185.0){1},
{4}4,3,2,1,
{4}8,7,7/8,,
{4}5,6,7,8,
{4}1,2,1/2,,
{4}1,2,3,4,
{4}5,6,7,1/8,
{4}2,2,1,1,
{4}1/8,1/8,2/7,,
{4}6,6,5/6,,
{4}3,3,3/4,,
{4}4,4,5,5,
{4}6,6,5/7,,
{4}3,3,3/4,,
{4}6,6,5/6,,
{4}5,5,4,4,
{4}3,3,2/4,,
{4}7,7,7/8,,
{4}2,2,1/2,,
{4}1,1,8,8,
{4}7,7,6/8,,
{4}2,2,1/2,,
{4}7,7,7/8,,
{4}8,8,1,1,
{4}2,2,1/3,,
{2}6h[2:1],5,
{2}3h[2:1],4,
{2}6h[2:1],5,
{2}3h[2:1],4,
{4}6,6,5,5,
{4}4,4,3/6,3/6,
{4}2/7,2/7,1/8,1/8,
{1}2b/7b,
{4}2,2,1,1,
{4}8,7/8,1/6,,
{4}7,7,8,8,
{4}1,1/2,3/8,,
{1}6^1[2:1],
{1}3^8[2:1],
{4}7,7,8,8,
{4}1,1,2/8,,
{4}7,7,8,8,
{4}1,1/2,3/8,,
{4}2,2,1,1,
{4}8,7/8,1/6,,
{4}7h[8:3]/8h[8:3],,,6^3[2:1],{1},
{1}1-6[2:1]/2-5[2:1],
{1}7-4[2:1]/8-3[2:1],
{4}2,1,1/8,7,
{4}8,1/8,2/7,,
{1}7-4[2:1]/8-3[2:1],
{1}1-6[2:1]/2-5[2:1],
{4}6,5,4/5,3,
{4}4,4/5,3/6,,
{1}8-5[2:1],
{1}4-1[2:1],
{4}2,3,4,5,
{4}6,7,1/8,,
{1}7-2[2:1],
{1}3-6[2:1],
{4}7,8,1,2,
{4}1/8,1/8,2/7,,
{2}3h[2:1],4,
{2}6h[2:1],5,
{2}3h[2:1],4,
{2}6h[2:1],5,
{1}4h[2:1]/5h[2:1],
{4}4/5,4/5,3/6,3/6,
{4}2/7,2/7,1/8,1/8,
{1}2h[1:1]/7h[1:1],,
{4}7,7,7/8,7/8,
{4}1,1/2,3/8,,
{4}2,2,1/2,1/2,
{4}8,7/8,1/6,,
{1}2^5[2:1],
{1}6^1[2:1],
{4}1/2,1/2,8,7,
{4}7/8,7/8,1/6,,
{4}3,3,3/4,3/4,
{4}5,5/6,4/7,,
{4}7,7,7/8,7/8,
{4}1,1/2,3/8,,
{1}3>6[4:5],,
{4}7/8,7/8,1/2,1/2,
{4}8,7/8,1,1/2,
{4}7/8,7/8,1/2,1/2,
{4}7/8,1/2,3/8,,
{1}3^6[2:1],
{1}7^2[2:1],
{4}3/4,3/4,2/5,,
{4}5/6,5/6,4/7,,
{4}1/2,1/2,7/8,7/8,
{4}1,1/2,8,7/8,
{4}1/2,1/2,7/8,7/8,
{4}1/2,7/8,1/6,,
{1}6^3[2:1],
{1}2^5[2:1],
{1}7^4[2:1],
{1}3^6[2:1],
{4}7,8,1,1,
{4}2,1,7/8,,
{4}2,1,8,8,
{4}7,8,1/2,,
{4}7,8,1,1,
{4}2,1,7/8,7/8,
{4}7,8,1,2,
{4}1/8,1/8,2b/7b,
E

EXPERT

(185.0){4},,,4/5,
{4}2h[4:1],3h[4:1],4,4/5,
{8}6,5,6,,5/6,,4/7,,
{4}6,5/7,3,2/4,
{8}3,4,3,,1/8,,,,
{4}7h[4:1],6h[4:1],5,4/5,
{8}3,4,3,,3/4,,2/5,,
{4}3,2/4,6,5/7,
{8}6,5,6,,2b/7b,,,,
{4}6,5/6,6,5/6,
{8}6,,5/7,,6,5,4/6,,
{4}6,5/6,6,5/6,
{4}6,5,4,3,
{4}3,3/4,3,3/4,
{8}3,,2/4,,3,4,3/5,,
{4}3,3/4,3,3/4,
{8}4/5,,,3/6,3h[4:1]/6h[4:1],,,,
{4}6,5/6,6,5/6,
{8}6,,6/7,,6,5,4/6,,
{4}6,5/6,6,5/6,
{4}6,7/6^4[4:1],,,
{4}3,3/4,3,3/4,
{8}3,,2/3,,3,4,3/5,,
{4}3,3/4,3,3/4,
{4}5/6,3/4,4/5,,
{8}6/3h[8:3],,,4,4,,5,5,
{8},5/6h[8:3],,,5,,4,,
{8}3/6h[8:3],,,5,5,,4,4,
{8},3/4,,4/3h[8:3],,,,,
{8}3/6,,5,,4,,3,3h[8:3],
{4},2,1,4qq1[1:1]/8qq5[1:1],{1},
{4},2b,3b,4b,
{8}5/6,,7/8,7/8>5[8:3],,,,,
{4},1/2,7/8,5/6,
{8}3/4,,1/2,2/1<4[8:3],,,,,
{8},,2/5,,4,4,5,5,
{4}2-5[8:1],6,7-4[8:1],3,
{4}2^5[8:1],6,7^4[8:1],2,
{8}3,,4,,5,,6,6,
{8},5/7,,3,3,,2/4,,
{8}5/6,,3/4,4/3>6[8:3],,,,,
{4},5/6,7/8,1/2,
{8}3/4,,5/6,5/6<3[8:3],,,,,
{4},,1/8,2/7,
{8}3-5[8:1],,,6-4[8:1],,,2-5[8:1],,
{8},7-4[8:1],,,1,1b,,,
{8}3h[8:3],,,4,2/5,,,,
{8}6h[8:3],,,5,4/7,,4/5,,
{16}3/6,,,,1/2,,,1/2,,,1/2,,,,,,
{16}7/8,,,7/8,,,7/8,,,,,,3/6,,,,
{8}4,4,,7,7,,2,2,
{8},5,5,,3/4,,5/6,,
{8}3,3,2/4,,1/8,,5/6,,
{8}4/7,4/7,,,3/6,,2/7,,
{1}8/1>8[4:5],,
{8}1/2,,3,3,,5,5,,
{8}4,4,,3h[8:3]/6h[8:3],,,,,
{4}6,5/7,3,2/4,
{4}7,6/8,2,1/3,
{8}5,5,4,4,6,6,3,3,
{8}7,7,2,2,1/8,1/8,1b/8b,,
{8}3/4,4/3h[8:11],,,4,,4,,
{4}4,4,4,4/5,
{8}5/6,5/6h[8:11],,,5,,5,,
{4}5,5,5,4/5,
{1}3h[4:3]/6h[4:3],
{8}4,4,5,5,3,3,6,6,
{8}2,2,7,7,1/8,1/8,1/8,1/8,{1},
{4},7b,6b,5b,
{8}3/4,,1/2,2h[8:5]/1<4[8:3],,,,,
{4},7/8,1/2,3/4,
{8}5/6,,7/8,7h[8:5]/8>5[8:3],,,,,
{16},,,,4/7,,,,3h[16:3],,,4h[16:3],,,5,,
{4}7-4[8:1],2,3-8[8:1],7,
{4}6^1[8:1],3,2^5[8:1],7,
{8}6,,5,,4,,3,3,
{8},2/4,,6,6,,5/7,,
{8}3/4,,5/6,5h[8:5]/6<3[8:3],,,,,
{4},3/4,1/2,7/8,
{8}5/6,,3/4,4h[8:5]/3>6[8:3],,,,,
{4},,1/8,2/7,
{4}4/7h[4:1],6,5/2h[4:1],3,
{4}2b/7b,1/2,3/4,5/6,
{8}7/8,,1/2,2h[8:5]/1<3[8:3],,,,,
{4},7/8,5/6,3/4,
{8}1/2,,7/8,7h[8:5]/8>6[8:3],,,,,
{8},,4/5,,4/5,4/5,,3/6,
{4}6/3-8[8:1],7,6-1[8:1],2,
{4}3^8[8:1],7,6^1[8:1],2,
{8}3,,4,,5,,6,6,
{8},5/7,,3,3,,2/4,,
{8}5/6,,3/4,4h[8:5]/3>5[8:3],,,,,
{4},5/6,7/8,1/2,
{8}3/4,,5/6,5h[8:5]/6<4[8:3],,,,,
{4},,1/8,2/7,
{8}6/3-5[8:1],,,6-4[8:1],,,2-5[8:1],,
{8},7-4[8:1],,,1,1b,,,
{8}3/7-4[8:1],,,2-5[8:1],,,8-4[8:1],,
{8},1-5[8:1],,,8,8b,,,
{4}7h[4:1],6h[4:1],5,4/5,
{8}3,4,3,,3/4,,2/5,,
{4}3,2/4,6,5/7,
{8}8,1,8,,1/8,,,,
{4}2h[4:1],3h[4:1],4,4/5,
{8}6,5,6,,5/6,,4/7,,
{4}6,5/7,3,2/4,
{8}1,8,1,,2b/7b,
E

MASTER

(185)
{4}35,
6-3[8:1],2-5[8:1],6-1[8:1],3-6[8:1],8-5[8:1],{8}4,4,35,,46,,
{4}3-6[8:1],7-4[8:1],3-8[8:1],6-3[8:1],1-4[8:1],5<4[4:1],4,,
3-6[8:1],7-4[8:1],3-8[8:1],6-3[8:1],1-4[8:1],{8}5,5,46,,35,,
{4}6-3[8:1],2-5[8:1],6-1[8:1],3-6[8:1],{8}8,8,1,1,27,,,,
5,,6,6-8[8:1],,1-5[8:1],,6,6,,57,,4,4,35,,
7,,8,{4}8-4[8:1],3-1[8:1],6-3[8:1],2>7[4:1],7,{8}8,8,,
7,,3,3-1[8:1],,8-4[8:1],,3,3,,24,,5,5,46,,
35,,4-1[8:1],5,6,,5,5-8[8:1],,1-5[8:1],,8,8,,37,,
8^5[8:1],,3,3-8[8:1],,7-4[8:1],,3,3,,1-4[8:1]/8,,5,5,46,,
18,7,2,{4}2-5[8:1],6-1[8:1],3-6[8:1],7<2[4:1],2,{8}1,1,,
4^1[8:1],,6,6-1[8:1],,2-5[8:1],,8^5[8:1],,1,1,,45,,3,,
46,,5-1[8:1],4,3,,4,4-8[8:1],,7-3[8:1],,1,1,,37,,
34,3/4h[8:11],,,{2}3V52[2:1],,3,{8}56,5h[8:11]/6,,,{2}6V47[2:1],,6,
3^8[4:1]/4^7[4:1],{8},,47,47,,45,45,,27,,27,,
18,18,27,27,36,36,45,45,{4},,,3b/6b,
{8}36,4>7[4:1],5,6,{4},,2/7-3[8:1],4-1[8:1]/7,4/8-5[8:1],18,
{8}6,5<2[4:1],4,3,{4},1,1>5[4:1],5<1[4:1],1>5[4:1],6,
7-3[8:1],1-4[8:1]*-6[8:1]/7,1,{8}8,17,,25,6,47,3,25,6,47,
{4}3-8[8:1],35,6-1[8:1],46,{8}3,3,{4}27,1-4[8:1]/5-8[8:1],15,
{8}3,4>7[4:1],5,6,{4},8,2-6[8:1]/7,2/5-8[8:1],1-4[8:1]/5,{8}18,8,
7-4[8:1],,3,2-5[8:1],,8,8,,7-3[8:1],7,8-4[8:1],8,1-5[8:1],1,2,2,
25,1,8,47,8,1,25,1,8,47,8,1,2b/7b,3b/6b,,,
47,{16}6q2[4:1],5,{8},2V48[4:1],,,,,25,{16}3p7[4:1],4,{8},7V51[4:1],,,,,
18,18,{16}24,,,57,,,36,,45,,,,57,,,24,,,18,,36,,4,5,4,5,4,,
{8}3-6[8:1],3,8,7-2[8:1],7,4,3-6[8:1],3,7,7,8^5[8:1],8,4^1[8:1],4,,,
{16}1,8,1,,{4}3h[8:1]/7h[8:1],2h[8:1]/6h[8:1],{16}3,4,3,,25,,25,,6,5,6,,47,,47,,8b,,,,
{8}2pp5[2:1]/6,,5,,8,8,8,,3/7qq4[2:1],,4,,1,1,1,,
25,{16}3,4,3,,47,,6,5,6,,{4}2-6[8:1]/5,2/7-3[8:1],1-4[8:1]/7,1/5-8[8:1],15,
{8}47,6,25,3,47,6,25,3,15,6,48,3,15,6,48,3,
45,45,36,36,27,27,18,18,27,{16}3,6,3,6,3,6,4,5,4,,36,,,,
{8}34,2h[8:5]/5h[8:5],,,,,,25,,4h[8:5]/8h[8:5],,,,,,,
18,2h[8:5]/7h[8:5],,,,,,2^7[8:1],,6^3[8:1],,1h[8:3],,,8<1[4:3],,
{1},{8}5,5,36,36,2,2,18,18,27,6,5,4,36,36,45,
{1}4h[8:7]/5h[8:7],{16}5,4,{8}36,3h[8:5]/6h[8:5],,,,,,,
7-4[8:1],7,8,1,2-5[8:1],2,1,8,{4}2-6[8:1]/7,2/5-8[8:1],1-4[8:1]/5,18,
{8}7-4[8:1],7,8,1,2-5[8:1],2,1,8,8h[4:1],,6,,{16}57,,,46,,,35,,
{4}2-6[8:1],2/8-3[8:1]*-5[8:1],8,{8}1,28,,17,1-5[8:1]/7-3[8:1],,17,,17,,
4/6-1[8:1],4,46,,3-8[8:1]/5,5,35,,6,6,2b/7b,18,18,{16}1,8,1,8,1,8,
{8}2-5[8:1],2,1,8,7-4[8:1],7,8,1,{4}2/7-3[8:1],4-1[8:1]/7,4/8-5[8:1],{8}18,1,
2-5[8:1],2,1,8,7-4[8:1],7,8,1,2-6[8:1],2,1-5[8:1],1,8-4[8:1],8,7,7,
47,8-4[8:1],,2,1-5[8:1],,7,8,27,{16}4,5,4,5,4,5,4,5,4,5,{4}36,
{8}3-8[8:1]/6,6,6,6,6/8-5[8:1],6,6,6,5-1[8:1]/6,6,6,6,1-4[8:1]/6,6,6,6,
4-8[8:1]/6,6,6,6,6/8-4[8:1],6,6,6,{4}4>8[4:1],8<4[4:1],4>8[4:1],8,
6-4[8:1],36,3-5[8:1],36,6^3[4:1],3q7[4:1],7p2[4:1],2,
1-5[8:1],{8}7,7,8-4[8:1],,2,2,{4}36,4-1[8:1],4/5-8[8:1],15,
{8}3/6-1[8:1],3,3,3,1-4[8:1]/3,3,3,3,3/4-8[8:1],3,3,3,3/8-5[8:1],3,3,3,
3/5-1[8:1],3,3,3,1-5[8:1],3,3,3,35,6,{4}2-5[8:1]/7-4[8:1],27,27,
{8}38,4,5,16,5,4,38,4,5,16,5,4,3-5[8:1]/6,36,,,
16,5,4,38,4,5,16,5,4,38,4,5,4b/5b,4b/5b,,,
{8}3-6[8:1],3,7-4[8:1],7,3-8[8:1],3,6-3[8:1],6,1-4[8:1],1,5,6,4^1[8:1]/6,,5,,
6-3[8:1],6,2-5[8:1],2,6-1[8:1],6,3-6[8:1],3,8-5[8:1],8,4>5[4:1],4,5,,,,
6-3[8:1],6,2-5[8:1],2,6-1[8:1],6,3-6[8:1],3,8-5[8:1],8,4,3,2/5^8[8:1],,45,,
3-6[8:1],3,7-4[8:1],7,3-8[8:1],3,6,,18,18,27,36,
{1}4b/5b,,,
E

Re:MASTER


名前:
コメント:

タグ:

+ タグ編集
  • タグ:
最終更新:2026年10月03日 22:19