EASY
BASIC
(181.0){1},,
{2}1,1,
{2}2,2,
{2}3,3,
{4}4,4,4,,
{2}5,5,
{2}6,6,
{2}7,7,
{4}8,8,8,,
{1}1h[2:1],
{1}8h[2:1],
{2}1,1,
{4}8,8,8,,
{2}7,7,
{4}6,6,5/6,,
{2}5,5,
{4}4,4,4,,
{2}3,3,
{4}2,2,1/2,,
{2}3,3,
{4}4,4,4,,
{2}5,5,
{4}6,6,5/6,,
{2}7,7,
{4}8,8,8,,
{2}1,1,
{4}2,2,1/2,,
{1}8-5[4:3],,
{1}1-4[4:3],,
{1}5-8[4:3],,
{1}4-1[4:3],,
{2}8,1b/8b,
{4}2,2,2,,
{4}3,3,3,,
{4}4,4,4,,
{4}5,4,5,,
{4}6,6,6,,
{4}7,7,7,,
{4}8,8,8,,
{4}1,8,1,,
{4}7,7,7,,
{4}6,6,6,,
{4}5,5,5,,
{4}4,5,4,,
{4}3,3,3,,
{4}2,2,2,,
{2}1,1,
{4}8,8,8b,,
{1}1-5[4:3],,
{2},8h[2:1],
{2},7h[2:1],
{2},6h[2:1],
{2},5h[2:1],
{2},4h[2:1],
{2},3h[2:1],
{2},2h[2:1],
{2},1h[2:1],
{2},8,
{2}8,1,
{2}1/8,2,
{2}2,3,
{2}3/4,4,
{2}4,5,
{2}4/5,6,
{2}6,7,
{4}7/8,,1,1,
{4}1,,8,8,
{4}8,,7,7,
{4}7,,6,6,
{4}5/6,,5,5,
{4}5,,4,4,
{4}4,,3,3,
{4}3,,2,2,
{2}1/2,2-6[4:3],{1},
{2},7-3[4:3],{1},
{2},1-5[4:3],{1},
{2},8-4[4:3],{1},
{4},,1,1,
{4}2,2,3,3,
{4}3/4,,4,4,
{4}5,5,6,6,
{4}5/6,,7,7,
{4}8,8,1,1,
{2}1/8,1/2,
{4}1/2,,7/8,7/8,
{4}7/8,,1/2,1/2,
{4}1b/2b,,8,8,
{4}8,,7,7,
{4}7,,6,6,
{4}5,5,4,5,
{4}4/5,,4,4,
{4}4,,3,3,
{4}3,,2,2,
{4}1,1,8,1,
{2}1/8,{8}1h[8:13]/8h[8:13],,,,,{1},,
E
ADVANCED
(181.0){1},
{4}4/5,4/5,4/5,2/7,
{4}3,4,2/5,,
{4}6,5,4/7,,
{4}1,2,3/4,,
{4}8,7,5/6,5/6,
{4}8,7,1/6,,
{4}1,2,3/8,,
{4}5,6,7/8,,
{4}4,3,1/2,1/2,
{1}1pp4[4:5]/8qq5[4:5],,
{4}3,3,4,4,
{4}3,4,2/5,,
{4}6,6,5,5,
{4}6,5,4/7,,
{4}3,3,2/4,,
{4}6,6,5/7,,
{4}1,2,3/8,,
{4}8,7,1/6,,
{4}7,7,8,8,
{4}7,8,1/6,,
{4}2,2,1,1,
{4}2,1,3/8,,
{4}7,7,6/8,,
{4}2,2,1/3,,
{4}5,6,4/7,4/7,
{4}4,3,2/5,2/5,
{4}6h[4:3],,5,5,
{4}3h[4:3],,4,4,
{4}6h[4:3],,5,5,
{4}3h[4:1],4,6h[4:1],5,
{4}3h[4:3],,1,1,
{4}6h[4:3],,8,8,
{4}2h[4:1],1,7h[4:1],8,
{4}1/8,1/8,1/8,,
{4}2/7,2/7,2b/7b,,
{4}2,1,3/8,3/8,
{4}7,6,4/5,,
{4}7,8,1/6,1/6,
{4}2,3,4/5,,
{4}5/6,5/6,4/7,,
{4}3/4,3/4,2/5,,
{4}4/5,3/6,2-4[4:1]/7-5[4:1],,
{4},,4/5,4/5,
{4}3,4,2/5,2/5,
{4}6,7,1/8,,
{4}6,5,4/7,4/7,
{4}3,2,1/8,1/8,
{4}7/8,7/8,1/6,,
{4}1/2,1/2,3/8,,
{4}3/4,2,1/8,1/8,
{4}5/6,7,1/8,1/8,
{4}2b/7b,,,3/6,
{2},4/5,
{4}4/5,4/5,6/3h[4:3],,
{4}4,4,3/6h[4:3],,
{4}5,5,6/3h[4:3],,
{4}4,4,6h[4:1],5,
{4}3h[4:1],4,4/7h[4:3],,
{4}6,6,5/2h[4:3],,
{4}3,3,4/7h[4:3],,
{4}6,6,2h[4:1],3,
{4}7h[4:1],6,1h[4:1],2h[4:1],
{4}3h[4:1],4h[4:1],5h[4:1],6h[4:1],
{4}7h[4:1],8,8h[4:1],7h[4:1],
{4}6h[4:1],5h[4:1],4h[4:1],3h[4:1],
{4}2h[4:1],1,3/4,3/4,
{4}5/6,5/6,7/8,7/8,
{4}1/2,1/2,2/3,2/3,
{4}4/5,4/5,6/7,6/7,
{4}1/8,1/8,{2}1bpp4[4:5]/8bqq5[4:5],{1},
{4},,3,2/4,
{4}1/5,6/8,7h[4:1],8,
{4}1/6,,6,5/7,
{4}4/8,1/3,2h[4:1],1,
{8}3/8,,,,2/7,,1,1,
{8},8,8,,2/7,,8,8,
{8},1,1,,2b/7b,,,,
{4},,4/5,4/5,
{2}4/5,2/7,
{4},,1/8,1/8,
{4}1/8,,5/6,5/6,
{4}4/7,,3/4,3/4,
{2}2/5,2-4[4:1]/7-5[4:1],
{2},4/5,
{4}4/5,4/5,3,4,
{4}2/5,2/5,1/6,7/8,
{4}1/6,,6,5,
{4}4/7,4/7,3/8,1/2,
{4}3/8,3/8,5,4/6,
{4}3/7,,4,3/5,
{4}2/6,,6,5/7,
{4}1/8,1/8,3,2/4,
{4}1/8,,6,5/7,
{4}1/8,1/8,{2}1bpp4[4:5]/8bqq5[4:5],{1},
{4},,8,7,
{4}5/6,,1,2,
{4}3/4,2/5,8,7,
{4}1/6,1/6,1,2,
{4}3/8,3/8,5,6,
{4}7/8,1/6,4,3,
{4}1/2,3/8,{2}8/1h[8:13],{1},
{8},8b,
E
EXPERT
(181.0){1},
{8}5,5,4,4,5,,3/6,,
{8}7,7,8,,5/6h[4:1],,3,,
{8}2,2,1,,4/3h[4:1],,6,,
{8}5,5,4,,4,5,3/6<3[4:1],,
{4},,1/2,4/7,
{8}2,2,1,,4/3h[4:1],,6,,
{8}7,7,8,,5/6h[4:1],,3,,
{8}5,5,4,,4,5,3/6<3[4:1],,
{4},,1/2,4/7,
{4}4/3h[4:1],5,5/6h[4:1],4,
{1}1/8<1[2:1],
{8}4/6h[4:3],,5,,4,4,3,,
{4}3^8[4:1]/4^7[4:1],,,5/6,
{8}5/3h[4:3],,4,,5,5,6z2[2:1],,
{4},,,4/5,
{4}5/7,8,2/4,1,
{4}4-1[4:1]/5-8[4:1],,,2/7,
{4}5/6h[4:1],1,4/3h[4:1],8,
{4}5/6h[4:1],1,1/8,4/5,
{8}5/3h[4:3],,1,,4,4,5,,
{4}5^2[4:1]/6^1[4:1],,,3/4,
{8}4/6h[4:3],,8,,5,5,4,,
{4}7-4[4:1]/8-3[4:1],,,4/5,
{4}2/4,1,5/7,8,
{4}2-7[4:1]/6-3[4:1],,,2/7,
{4}4/3h[4:1],8,5/6h[4:1],1,
{4}4/3h[4:1],8,1/8,3/6,
{4}4/5h[2:1],6,4h[2:1],3,
{4}5h[2:1],7,4h[2:1],2,
{4}8h[2:1],7,1h[2:1],2,
{4}8h[2:1],6,1,2/7,
{4}5/4h[2:1],2,5h[2:1],7,
{4}4,3/6,2/7,1/8,
{16}2h[16:3],,,3h[16:3],,,4,,7h[16:3],,,6h[16:3],,,5,,
{16}2h[16:3],,,3h[16:3],,,4,,7,,,,4/5,,,,
{16}1/8,,,1/8,,,1/8,,2b/7b,,,,,,,,
{8}4^1[8:1]/8^5[8:1],,,,2/6,2/6,,3/4h[8:3],
{8},1,1-5[8:1],,8,,1/8,,
{8}1^4[8:1]/5^8[8:1],,,,3/7,3/7,,6/5h[8:3],
{8},8,8-4[8:1],,1,,1/8,,
{8}4,5,6,5,4,3,,8h[4:1],
{8},1,1,7,7,3,3,5,
{16}5h[16:3],,,7h[16:3],,,8,,8,,1h[16:3],,,3h[16:3],,,
{4}4,4/3h[4:1],8-4[8:1],1,
{8}1^4[8:1]/5^8[8:1],,,,3/7,3/7,,6/5h[8:3],
{8},8,8-4[8:1],,1,,1/8,,
{8}4^1[8:1]/8^5[8:1],,,,2/6,2/6,,3/4h[8:3],
{8},1,1-5[8:1],,8,,1/8,,
{8}6,5,4,3,4,5,,1,
{8}1,7,7,3,3,5,5,,
{16}1h[16:3],,,2h[16:3],,,3,,8h[16:3],,,7h[16:3],,,6,,
{4}1,4^1[4:1]/5^8[4:1],,,
{4}7b/2b-6[8:1],,,2/7-3[8:1],
{2},1^4[4:1]/8^5[4:1],
{4},4/5,3/8h[2:1],7,
{4}6h[2:1],5,4h[2:1],3,
{4}2h[4:1],1,6/1h[2:1],2,
{4}3h[2:1],4,5h[2:1],6,
{4}7h[4:1],8,7/4h[2:1],3,
{4}2h[2:1],1,8h[2:1],7,
{4}6h[4:1],5,2/5h[2:1],6,
{4}7h[2:1],8,1h[2:1],2,
{12}3h[4:1],,,4,,,6/1h[2:1],,,2,,3,
{12}3h[2:1],,,4,,5,5h[2:1],,,6,,7,
{12}7h[4:1],,,8,,,3/8h[2:1],,,7,,6,
{12}6h[2:1],,,5,,4,4h[2:1],,,3,,2,
{12}2h[4:1],,,1,,,2/5h[2:1],,,6,,7,
{12}7h[2:1],,,8,,1,1h[2:1],,,2,,3,
{12}3h[4:1],,,4,,,7/4h[2:1],,,3,,2,
{12}2h[2:1],,,1,,8,8h[2:1],,,7,,6,
{4}6h[4:1],5,1b/8b,3/6,
{8}7,7,8,,2,2,1,,
{8}4/6,4,3/5,,6,6,5,6,
{8}3,3,4,3,6,6,5,7,
{8}3,3,4,2,7,7,8,7,
{8}2,2,1,2,7,7,8,6,
{8}2,2,1,,5b/7b,,,2b/4b,
{4},4b^1[2:1]/5b^8[2:1],,,
{2},1h[4:3]/5h[4:3],
{8},,,1/5,,3/7,3-8[8:1]/7-4[8:1],,
{4},2/6,4h[4:3]/8h[4:3],,
{8},,,4/8,,2/6,2-5[8:1]/6-1[8:1],,
{8},,3/7,,2,1,8,7,
{8}8,1,,4h[4:1],,5,5,3,
{8}3,7,7,1,1b,,,,
{16},,5b/7b,,,2b/4b,,,3b/6h[2:1],,,,,,,,
{4}1-5[8:1],8,3^8[8:1]/7^4[8:1],,
{8}1/5,1/5,,3/4h[8:3],,2,2-6[8:1],,
{4}8,1/8,2^5[8:1]/6^1[8:1],,
{8}4/8,4/8,,6/5h[8:3],,7,7-3[8:1],,
{8}1,,1/8,,7,8,1,2,
{8}1,8,,4,4,6,6,2,
{16}2,,8,,8,,,,4h[16:3],,,3h[16:3],,,2,,
{16}5h[16:3],,,6h[16:3],,,7,,4,,,,7/8,,,,
{4}1/6,4/5,1/2,5^2[4:1]/6^1[4:1],
{4},,3b/8b,4/5,
{8}4/3h[4:1],5,6,,7,7,8,,
{8}5/6h[4:1],4,3,,4,4,5,5,
{8}4,5,6/3>6[4:1],,,,,,
{8}7/8,,2/5,,7,7,8,,
{8}5/6h[4:1],4,3,,2,2,1,,
{8}4/3h[4:1],5,6,,4,4,5,5,
{8}4,5,6/3>6[4:1],,,,,,
{4}7/8,2/5,6/5h[8:11],,
{8},,,,,,,8-4[8:1],
{8},1b,,
E
MASTER
(181)
{4}56,34,{8}18,18,2b/7b,,
3,4,25,6,78,1,25,4,6,5,47,3,12,8,47,5,
{16}3,4,3,,1,,6,5,6,,{8}8,3,7,6h[4:1],8,4h[4:1],8,5h[4:1],8,3h[4:1],8,
6,7,38,7,56,4,38,1,7,8,16,2,34,5,16,8,
{16}2,1,2,,4,,7,8,7,,{8}5,4,2,3h[4:1],1,5h[4:1],1,4h[4:1],1,6h[4:1],1,
3,{16}6,5,6,,3,4,3,,6,5,6,,37,,4,5,4,5,3,6,3,6,2,7,2,7,1b/8b,,,,
3h[16:3],,,2h[16:3],,,{8}1,8,7,1,8-4[8:1],,2-6[8:1],,7-3[8:1],,1,1,,
{16}6h[16:3],,,7h[16:3],,,{8}8,1,2,8,1-5[8:1],,7-3[8:1],,2-6[8:1],,8,8,,
{16}3h[16:3],,,1h[16:3],,,8,,{2}8-3[8:1]*-5[8:1],{16}6h[16:3],,,8h[16:3],,,1,,{2}1-4[8:1]*-6[8:1],
{8}7,6,25,1,78,3,45,6,2,3,47,8,{16}8h[16:3],,,7h[16:3],,,6,,
{8}5,3,5,2,5,1,5,2-6[8:1],,5-8[8:1],,1-4[8:1],,7,7,,
4,6,4,7,4,8,4,7-3[8:1],,4-1[8:1],,8-5[8:1],,2,2,,
{16}5h[16:3],,,4h[16:3],,,3,,{2}3-6[8:1]*-8[8:1],{16}4h[16:3],,,5h[16:3],,,6,,{2}6-1[8:1]*-3[8:1],
{8}2,3,47,8,12,6,45,3,7,6,25,1,{2}7-3[8:1]/8-4[8:1],
{8}1-4[8:1],5,1-6[8:1],5,1-4[8:1],5,1-6[8:1],5,1-4[8:1],5,1,5,1,1,,4,
8-5[8:1],4,8-3[8:1],4,8-5[8:1],4,8-3[8:1],4,8,4,8,4,48,,2b/6b,,
1-3[8:1],4,1-5[8:1],5,1-4[8:1],6,1-6[8:1],7,1-5[8:1],8,1-4[8:1],7,1^6[8:1],6,1b,,
{16}45,,,68,,,28,,46,,,13,,,17,,35,,,68,,,17,,{2}2h[4:1]/8h[4:1],
{16}48,,,37,,,26,,{4}2b-5[8:1]/6b-1[8:1],2b/6b,
{8}78,7-3[8:1]/8,16,78,1,1-5[8:1],,1/8h[4:1],,3,4^1[8:1]/8^5[8:1],,48,,78,,
12,1/2-6[8:1],38,12,8,8-4[8:1],,1h[4:1]/8,,6,1^4[8:1]/5^8[8:1],,15,,12,,
78,7^4[8:1]/8,16,78,2,2-5[8:1],,28,,17,1/7-3[8:1],,27,,1b/8b,,
{16}57,,,24,,,38,,,,24,,,57,,,{8}16,7,28,,7b-4[8:1]/8b-3[8:1],,7b/8b,,
12,1/2-6[8:1],38,12,8,8-4[8:1],,1h[4:1]/8,,6,1^4[8:1]/5^8[8:1],,15,,12,,
78,7-3[8:1]/8,16,78,1,1-5[8:1],,1/8h[4:1],,3,4^1[8:1]/8^5[8:1],,48,,78,,
12,1/2^5[8:1],38,12,7,7-4[8:1],,17,2,2,36,36,45,54,27,27,
{16}16,,,48,,,56,,38,,,15,,,{8}34,56,7,18,3,2b-5[8:1]/6b-1[8:1],,2b/6b,,
{4}1/8z4[4:1],,,1s5[4:1]/8,,,{6}2h[6:1],3h[6:1],4,7h[6:1],6h[6:1],5,
{12}2b-6[8:1],,1,12,,,7-3[8:1],,8,78,,,1-5[8:1],,8,18,,,8-4[8:1],,1,18,,,
1b-4[8:1]/2b,,2,12,,,7/8-5[8:1],,7,78,,,1-5[8:1]/2b,,2,12,,,7/8-4[8:1],,7,78,,,
2b-6[8:1]/8b,,7,27,,,1/7-3[8:1],,2,27,,,1-5[8:1]/6,,8,18,,,3/8-4[8:1],,1,18,,,
1b^4[8:1]/5b,,8,18,,,4/8^5[8:1],,1,18,,,2^5[8:1]/6,,1,12,,,3/7^4[8:1],,8,78,,,
2b/7b,,,8-4[8:1],,3,3-7[8:1],,6,6-4[8:1],,1,1-5[8:1],,6,6-2[8:1],,3,3-8[8:1],,8,8,,,
2b/7b,,,1-5[8:1],,6,6-2[8:1],,3,3-5[8:1],,8,8-4[8:1],,3,3-7[8:1],,6,6-1[8:1],,1,1,,,
2b/7b,,,3,4,2,6,5,7,2,1,3,7,8,6,1,8,3,6,5,7,1b,,,
2b/6b,,,6,5,7,3,4,2,7,8,6,2,1,3,8,1,7,{4}1bw5[8:1],1b,
{16}3,4,3,,25,,7,8,7,,16,,4,5,4,,7,8,7,1,7,2,7,3,7,4,7,5,7,,3,,
2-6[8:1],1,2,1,2,,7-3[8:1],8,7,8,7,,,,4,,2,1,2,8,2,7,2,6,2,5,2,4,2,,7,,
2,1,4,,7,8,5,,3,4,1,,6,5,8,,3,4,3,4,2,5,2,5,1,,56,,38,,26,,
3,4,1,,78,,6,5,8,,12,,1,8,1,8,{32}1,2,3,4,5,6,7,8,1,2,3,4,5,6,7,8,{4}1bw5[8:1],1,
{8}3b/7b,,,,,,,18,,,,,,{16}68,,,13,,,{8}45,,,,,,,7h[8:3]/8h[8:3],,,,,34,34,16,,
1-5[8:1],82,1,8-4[8:1],17,8,,2h[8:5],,4,5,6,6<3[8:1],,,,
18,,,,,{16}4h[8:1]/8h[8:1],,,3h[8:1]/7h[8:1],,,26,,5,4,5,4,5,4,{4}3-8[8:1]/7-4[8:1],37,
{8}56,5-1[8:1]/6,47,56,7,7-3[8:1],,2h[4:1]/7,,6,3^8[8:1]/7^4[8:1],,37,,12,,
34,3/4-8[8:1],25,34,2,2-6[8:1],,2/7h[4:1],,3,2^5[8:1]/6^1[8:1],,26,,78,,
56,5/6^1[8:1],47,56,2,2-6[8:1],,27,8,8,12,12,34,34,27,27,
{16}38,,,15,,,34,,16,,,48,,,56,,{4}3b-8[8:1]/7b-4[8:1],3b/7b,2b/6b,
1b-5[8:1]/8b-6[8:1],1b-3[8:1]/8b-4[8:1],1b/8b,1b/8b,2b>8[4:3]/7b<1[4:3],
2b/7b,,,,{8}3,4,25,6,78,56,37,4,
{24}8,7,6,{8}5,1,{24}1,2,3,{8}4,8,34,6,6h[4:1],8,4h[4:1],8,5h[4:1],8,3h[4:1],8,
6,7,38,7,56,78,16,2,7,8,16,2,34,12,48,1,
{24}1,2,3,{8}4,8,{24}8,7,6,{8}5,1,56,1,3h[4:1],1,5h[4:1],1,4h[4:1],1,6,1,
{1}1p7[8:9]/5p3[8:9],{8},,,,,
{1}2b/6b,,,
E
Re:MASTER
最終更新:2026年10月03日 22:19