アットウィキロゴ

人生リセットボタン

アーティスト kemu

BPM EASY BASIC ADVANCED EXPERT MASTER Re:MASTER
200 3 6 9 11+ 13+ -

EXPERT MASTER Re:MASTER
譜面制作者 サファ太 ぴちネコ -

EASY


BASIC

(200.0){1},,,,,,,,
{2}1,1,
{2}2,2,
{2}3,3,
{4}4,5,4,,
{2}5,5,
{2}6,6,
{2}7,7,
{4}8,1,8,,
{1}1h[1:1],,
{1}8h[1:1],,
{1}7h[1:1],,
{1}6h[1:1],,
{2}5,5,
{4}4,4,4,,
{2}3,3,
{4}2,2,2,,
{2}1,1,
{4}8,8,8,,
{2}7,7,
{4}6,6,6,,
{1}5-8[4:3],,
{1}4-1[4:3],,
{1}5-2[4:3],,
{1}4-7[4:3],,
{4}8,8,8,,
{4}1,1,1,,
{4}2,2,2,,
{4}3,3,3/4,,
{4}4,4,4,,
{4}5,5,5,,
{4}6,6,6,,
{4}7,7,7/8,,
{4}1,1,1,,
{4}8,8,8,,
{4}7,7,7,,
{4}6,6,5/6,,
{4}5,5,5,,
{4}4,4,4,,
{1}4b/5b,,
{1}2-6[4:3],,
{1}7-3[4:3],,
{1}2-5[4:3],,
{1}7-4[4:3],,
{4}1,1,1,,
{4}2,2,2,,
{4}3,3,3,,
{4}4/5,4/5,4/5,,
{4}5,5,5,,
{4}6,6,6,,
{4}7,7,7,,
{4}1/8,1/8,1/8,,
{4}7,7,7,,
{4}6,6,6,,
{4}5,5,5,,
{4}3/4,3/4,3/4,,
{4}2,2,2,,
{4}1,1,1,,
{4}8,8,1,1,
{4}2,2,1/2,,
{4}3,3,4,4,
{4}5,5,4/5,,
{4}6,6,7,7,
{4}8,8,1/8,,
{4}1/2,1/2,1/2,,
{4}7/8,7/8,7/8,,
{4}1,1,8,8,
{4}7,7,7/8,,
{4}6,6,5,5,
{4}4,4,4/5,,
{4}3,3,2,2,
{4}1,1,1/8,,
{1}1b/8b,,
{4}2,2,2,,
{4}3,3,3,,
{4}4,4,4,,
{4}5,4,5,,
{4}6,6,6,,
{4}7,7,7,,
{4}8,8,8,,
{4}1,8,1,,
{1}7h[1:1]/8h[1:1],,
{1}5h[1:1]/6h[1:1],,
{1}3h[1:1]/4h[1:1],,
{2}2,1,
{1}8-4[4:3],,
E

ADVANCED

(200.0){1},,,,,,,,
{4}2,2,3,3,
{4}4,4,4/5,,
{4}5,5,6,6,
{4}7,7,7/8,,
{4}7,7,6,6,
{4}5,5,4/5,,
{4}4,4,3,3,
{4}2,2,1/2,,
{4}3,3,4,,
{4}5,4,4/5,,
{4}6,6,5,,
{4}4,5,3/6,,
{4}2b,2,1/2,,
{4}7,7,{2}8/7qq4[4:5],{1},
{2},3/4,
{4}6,6,5,,
{4}4,5,4/5,,
{4}3,3,4,,
{4}5,4,3/6,,
{4}7,7,7/8,,
{4}2,2,1/2,,
{4}8,8,1,1,
{4}1/8,1/8,2/7,,
{2}3h[2:1],4,
{2}6h[2:1],5,
{2}3h[2:1],4,
{4}6,6,5/6,,
{2}2h[2:1],1,
{2}7h[2:1],8,
{2}1h[2:1],8,
{1}2/7,
{4}2b,2,1,1,
{4}8,7,1/6,,
{4}6,6,5,5,
{4}4,5,3/6,,
{4}6,6,5/7,,
{4}3,3,2/4,,
{4}6,5/6,3,3/4,
{4}4/5,4/5,3/6,,
{4}7b,7,8,8,
{4}1,2,3/8,,
{4}3,3,4,4,
{4}5,4,3/6,,
{4}3,3,2/4,,
{4}6,6,5/7,,
{2}1b,8b,
{4}1/8,1/8,2b/7b,,
{1}7qq4[4:5]/8pp3[4:5],,
{1}1qq6[4:5]/2pp5[4:5],,
{1}1pp4[4:5]/8qq5[4:5],,
{1}4h[2:3]/5h[2:3],,
{4}7b,7,8,8,
{4}1,2,3/8,,
{4}3,3,4,4,
{4}5,4,3/6,,
{4}3,3,2/4,,
{4}6,6,5/7,,
{4}3,3/4,6,5/6,
{4}4/5,4/5,3/6,,
{4}2b,2,1,1,
{4}8,7,1/6,,
{4}6,6,5,5,
{4}4,5,3/6,,
{4}5/6,5/6,5/6,,
{4}3/4,3/4,3/4,,
{4}5b,6,7,8,
{4}1,2,3,4,
{4}5,6,7,8,
{4}1/2,1/2,3/8,,
{4}6,6,7/8,,
{4}3,3,1/2,,
{4}7,7/8,2,1/2,
{4}1/8,1/8,2/7,,
{4}4b,3,2,1,
{4}8,7,1/6,,
{4}8,7,6,5,
{4}4,5,3/6,,
{4}6,6,7/8,,
{4}3,3,1/2,,
{2}7/8,1/2,
{4}1/8,1/8,2/7,,
{4}7,7,6,6,
{4}5,5,3/4,,
{4}4,4,3,3,
{4}2,2,1/8,,
{4}2,2,3,3,
{4}4,4,5/6,,
{4}5,5,6,6,
{4}7,7,1/8,,
{4}8,8,7,7,
{4}6,6,4/5,4/5,
{4}4,4,3,3,
{4}2,2,1/8,,
{4}1,1,2,2,
{4}3,3,4/5,4/5,
{4}5,5,6,6,
{8}7,,7,,1/8,,1/8,1/8,
E

EXPERT

(200.0){1}4V28[4:5]*V68[4:5],,
{1}1V75[4:5]*V35[4:5],,
{1}6h[4:11],,
{1}3h[4:3],
{4}4/5,4/5,4/5,,
{4}6,5/6,3,3/4,
{8}2,1,2,,3/8,,2/7,,
{4}3,2/4,6,5/7,
{4}3/4,2/5,1/6,7/8,
{4}2,1/2,7,7/8,
{8}6,5,6,,4/7,,3/6,,
{4}7,6/8,2,1/3,
{8}2/7,,2/7,,4,5,4/5,,
{4}3h[2:3],4,5,5,
{4}6,5,4,2/5,
{4}6h[2:3],5,4,4,
{4}3,4,5,4/7,
{4}6/3h[2:1],5,4,2/5,
{4}3/6h[2:1],4,5,4/7qq4[4:3],{1},
{8}3,3,5,5,4/5,,3/6,,
{4}5/2h[4:1],4,4/7h[4:1],5,
{4}6/2h[4:1],4,3/7h[4:1],5,
{4}4/2h[4:1],3,5/7h[4:1],6,
{4}7/8,1/8,1/2,3/8,
{4}2/7,3/4,2/7,5/6,
{8}7,8,7,,1/6,,2/7,,
{4}3,4/5,6,4/5,
{8}3/6,,3/6,,4/5,4/5,4/5,5b/4b>8[8:3],{1},
{1}5h[2:1]/6^1[4:1],
{1}4h[2:1]/3^8[4:1],
{1}4h[2:1]/6<2[4:1],
{4}3,2/4,6,5/7,
{4}4/5,1/8,2/7,,
{8}1,1,6,6,3,3,8,8,
{1}1b,
{8}4/2h[8:3],,1,1,,3/8,,1/6,
{8},7/8,7-4[8:1]/8-3[8:1],,,,,,
{4}5/6h[4:1],7,4/3h[4:1],2,
{4}8-5[8:1],1-4[8:1],8,,
{8}1/6,,7,8,7,,1/6,,
{4}3/4,5/6,4/7,,
{8}3,3,2/4,,6,6,5/7,,
{4}2/4,5/7,1/8,,
{8}5/7h[8:3],,8,8,,1/6,,3/8,
{8},1/2,1-6[8:1]/2-5[8:1],,,,,,
{2}3-1[8:1]/7-5[8:1],2-4[8:1]/6-8[8:1],
{2}3-8[8:1]/7-4[8:1],1/5,
{8}8/6h[8:3],,5,5,,4/7,,3h[8:3],
{8},4,4,,2/5,,,,
{1}1h[2:3],
{2},8b,
{1}3h[1:1],
{1}4h[1:1],
{1}5h[1:1],
{2}6,4/7,
{1}1pp4[4:5]/8qq5[4:5],,
{1}3h[2:3]/6h[2:3],,
{8}5/7h[8:3],,8,8,,1/6,,3/8,
{8},1/2,1^6[8:1]/2^5[8:1],,,,,,
{4}4/3h[4:1],1,5/6h[4:1],8,
{4}1-5[8:1],8-4[8:1],2,,
{8}3/8,,2,1,2,,3/8,,
{4}5/6,3/4,2/5,,
{8}6,6,5/7,,3,3,2/4,,
{4}5/7,2/4,1/8,,
{8}4/2h[8:3],,1,1,,3/8,,1/6,
{8},7/8,7^4[8:1]/8^3[8:1],,,,,,
{2}2-4[8:1]/6-8[8:1],3-1[8:1]/7-5[8:1],
{2}2-5[8:1]/6-1[8:1],4/8,
{8}5/7h[8:3],,8,8,,1/6,,2h[8:3],
{8},1,1,,3b/8b,,,,
{4}1/2h[4:1],4,5/6h[4:1],8,
{4}1/2h[4:1],4,5/6h[4:1],8,
{4}1/2,3/4,5/6,7/8,
{4}1/3,4/5,6b/8b,,
{8}2/5,,3,4,3,,2/5,,
{4}7/8,1/2,3/8,,
{8}7,8,1/6,,2,1,3/8,,
{4}6/7,2/3,1/8,,
{8}5/3h[8:3],,1,1,,2/8,,4/6h[8:3],
{8},8,8,,1/7,,,,
{2}3b-8[8:1]/7b-4[8:1],2b-5[8:1]/6b-1[8:1],
{2}3b-8[8:1]/7b-4[8:1],1b/5b,
{8}3/4,3/4,2/5,,5/6,5/6,4/7,,
{8}4/5,4/5,3/6,3/6,2/7,2/7,1/8,1/8,
{1}8/1h[2:3],
{2},8b,
{4}3,2/4,6,5/7,
{8}3,4,3,,2/5,,3/6,,
{4}7,1/8,2,1/8,
{4}2/7,3/6,4/5,3/6,
{4}7,6/8,2,1/3,
{8}7,8,7,,1/6,,2/7,,
{4}3,4/5,6,4/5,
{8}3/6,,2/7,,1,8,1/8,,
{4}2,1/2,7,7/8,
{8}6,5,6,,4/7,,3/6,,
{4}2/5,3,4/7,6,
{4}2/5,3,4/7,5/6,
{4}3,3/4,6,5/6,
{8}7,8,7,,1/6,,2/7,,
{4}3/8,2,1/6,7,
{8}3/8,,2/7,,4/5,4/5,4/5,4b/5b,
E

MASTER

(200)
{8}4h[4:1],,5h[4:1],,4h[4:1],,5,5,3,3,4,4,3,3,4,4,
,1,1-5[8:1],,8,,47,47,,8,8-4[8:1],,1,,25,,
8h[4:1],,1h[4:1],,8h[4:1],,1,1,7,7,8,8,7,7,8,8,
,5,5-1[8:1],,4,,38,38,,4,4-1[8:1],,5,,{16}6,2,7,1,
{4}8b,13,{16}47,,6,5,{8}6,3,8h[4:1],1,2h[4:1],7,6h[4:1],3,4,57,
,3-5[8:1],1,3,7-4[8:1],8,7,2-5[8:1],1,2,8-4[8:1],3,8,1-5[8:1],6,1,
7,,68,,25,{16}3,4,{8}3,6,1h[4:1],8,7h[4:1],2,3h[4:1],6,5,24,
,6-4[8:1],8,6,2-5[8:1],1,2,7-4[8:1],8,7,1-5[8:1],6,1,8,8,8,
4/8-6[8:1],,,5,5-1[8:1],,,8,8-4[8:1],,,3,3-1[8:1],,,7,
7^4[8:1],,,3,3^8[8:1],,,6,6h[8:3],5,4,3h[4:1],,1-4[8:1],2,1,
,8-4[8:1],7,8,,7-4[8:1],5,7,,3,2,16,,38,,5h[4:1],
,4h[4:1],5,6h[4:1],3,2h[4:1],7,8h[2:1],2,1,1,1,1,{16}2,7,2,7,2,7,
{8}1-5[8:1],,8,7,4-2[8:1]/6,,6,7,1/8-4[8:1],,1,2,3/5-7[8:1],,3,2,
1-5[8:1],,8,7,4-2[8:1]/6,,6,7,18,2,3,4,4-2[8:1]/8-6[8:1],,4/8-4[8:1],,
8b,,1,,47,{16}6,5,{8}6,3,8h[4:1],1,2h[4:1],7,6h[4:1],3,4,57,
,3,2,18,7,6,45,3,2,18,7,6,25,37,16,7qq5[8:1]/8pp2[8:1],
{2},1qq7[8:1]/2pp4[8:1],{8}38,,25,{16}3,3,{8}4,2^5[8:1]/5^8[8:1],,25,
{8},,37,,1,8,{4}1-3[8:1],1/8-4[8:1],7-5[8:1]/8,7,{8}1,28,
,37,37,,16,{16}7,7,{8}8,,47,6,25,3,47,4^1[8:1]/7^4[8:1],,47,,,
{16}6,3,6,3,7,2,7,2,8z4[8:1],1,8,1,{8}8b,,,,1h[8:1],8h[8:1],1h[8:1],8h[8:1],
1,,38,1-5[8:1]/2-4[8:1],,12,,8,,16,7-5[8:1]/8-4[8:1],,78,,1b,,
5h[4:1],,6h[4:1],,7,7,{4}8-4[8:1],8-5[8:1]*-6[8:1],8-2[8:1]*-3[8:1],8b,
{8},4,3^8[8:1]/7,,4,5,6^1[8:1],,5,4,{4}3q8[8:1],7q4[8:1],3,{8}1,1,
{16}7-4[8:1],8,7,8,7b,,,,2-5[8:1],1,2,1,2b,,,,
{4}1-6[8:1]/8-5[8:1],1b-4[8:1]/8b-3[8:1],1b/8b,{8}2,6,
4-8[8:1]/8,,6,6^1[8:1],,3-7[8:1],,5,,15,1V35[8:1]/5V71[8:1],,15,,,48,
4/8-4[8:1],,2,2^5[8:1],,7-3[8:1],,4qq1[8:3],,5,6,7,8,,5,4,
3b/6b,,16,7-4[8:1]/8-5[8:1],,78,,1,,38,1-4[8:1]/2-5[8:1],,12,,{16}1,8,1,8,
{8}2h[4:3],,,6,6h[4:1],,,26,2v4[8:1]/6v8[8:1],,,,3b/7b,{16}2,1,2,,7,8,
{8}7-3[2:1],,8,8,,1,,2,,8,8h[4:1],,1,,,,2-6[2:1],,7,,8,8,1,,15,,48,,3/7h[2:1],,,5,
5^3[8:1],,,1,1^7[8:1],,,,26,,35,,4w8[4:1],,,,{0.5},
{8}2b/6b,,47,5-1[8:1]/6-8[8:1],,56,,4,,25,3-1[8:1]/4-8[8:1],,34,,5b,,
1h[4:1],,2h[4:1],,3,3,{4}4-8[8:1],4-1[8:1]*-2[8:1],4-6[8:1]*-7[8:1],4b,
{8},8,3/7^4[8:1],,8,1,2^5[8:1],,1,8,{4}7q4[8:1],3q8[8:1],7,{8}5,5,
{16}3-8[8:1],4,3,4,3b,,,,6-1[8:1],5,6,5,6b,,,,
{4}4-1[8:1]/5-2[8:1],4b-7[8:1]/5b-8[8:1],4b/5b,{8}3,6,
4/8-4[8:1],,2,2^5[8:1],,7-3[8:1],,1,,15,1V35[8:1]/5V71[8:1],,15,,,48,
4-8[8:1]/8,,6,6^1[8:1],,3-7[8:1],,8qq5[8:3],,1,2,3,4,,1,8,
2b/7b,,25,3-8[8:1]/4-1[8:1],,34,,56,,{16}8,1,7,2,7,2,6,3,6,3,5,4,5,4,
{8}6b-2[8:1],,67,,5b-1[8:1],5,,3b-7[8:1],,34,,1b-5[8:1],,2b-6[8:1],2,,
4b-8[8:1],,45,,7b-3[8:1],1,7,1,{4}1b-5[8:1],1b>5[8:1]*<5[8:1],1,
{8},4,3^8[8:1]/7,,4,5,6^1[8:1],,5,4,{4}3q8[8:1],7q4[8:1],3,{16}1,8,1,8,
2-5[8:1],1,2,1,2b,,,,7-4[8:1],8,7,8,7b,,,,{8}2,1b/3b,6b-1[8:1]/8b-3[8:1],,6b/8b,,2,7,
3-7[8:1],,5,5^8[8:1],,2-6[8:1],,4,,48,4V68[8:1]/8V24[8:1],,48,,,37,
3/7-3[8:1],,1,1^4[8:1],,6-2[8:1],,3qq8[8:3],,4,5,6,7,,{16}5,4,5,4,
{8}5b,,16,7-4[8:1]/8-5[8:1],,78,,12,,{16}3,4,2,5,2,5,7,3,7,3,
1pp4[2:1],5pp8[16:7],1,5,{1}1b,{4},37,{16}1b/5b,,7,8,6,,3,4,
{8}2,,47,,16,{16}2,3,{8}48,7,6h[4:1],5,4h[4:1],7,8h[4:1],3,2,17,
,3-7[8:1],4,3,6-2[8:1],5,6,4-8[8:1],7,4,5-1[8:1],2,5,4,3,2,
16,,25,,38,{16}7,6,{8}15,2,3h[4:1],4,5h[4:1],2,1h[4:1],6,7,28,
,7-3[8:1],8,7,2-6[8:1],1,2,8-4[8:1],3,8,1-5[8:1],6,1,7,{16}8,1,8,1,
{4}8b-6[8:1],3/8-4[8:1],2/8-5[8:1],18,{8}2,2h[4:1],4,4h[4:1],1,1h[4:1],5,5h[4:1],
,8-4[8:1],6,8,7-3[8:1],5,7,2-6[8:1],4,2,1-5[8:1],3,1,4,3,2,
{4}1b-3[8:1]/5,1-5[8:1]/6,1-4[8:1]/7,18,{8}7,7h[4:1],5,5h[4:1],8,8h[4:1],4,4h[4:1],
,1-5[8:1],3,1,2-6[8:1],4,2,7-3[8:1],5,7,8,6,37,2-5[8:1]/6-1[8:1],37,2b/6b,
{1},,,,
E

Re:MASTER


名前:
コメント:

タグ:

+ タグ編集
  • タグ:
最終更新:2026年10月03日 22:19