BASIC
(205)
{1} ,,1,1x/8x,8,8,7,7,6,6,5,45,4h[1:1],,3h[1:1],,2h[1:1],,1h[1:1]/8h[1:1],,1,2,3,4x/5x,5,6,7,7x/8x,
{4} 5h[4:3]/6h[4:3],,,,,,,3h[4:3]/4h[4:3],,,,,,,
{2} 2,2,12,,7,7,7x/8x,,
{4} 1b,1,1,,2,,2,,3,3,3,,4,,45,,5,5,5,,6,,6,,7,7,7,,8,,1x/8x,,8b,8,8,,7,,7,,6,6,6,,5,,45,,4,4,4,,3,,3,,2,2,2,,1,,18,,
{2} 1h[4:3]/8h[4:3],,,1h[4:3]/2h[4:3],,,7h[4:3]/8h[4:3],,
{4} ,78,,
{1} 1-4[4:5],,,8,8-5[4:5],,,1x,
{2} 1,1,2,2,3,3,45,,5,5,6,6,7,7,7x/8x,,B7/B8,,,B1/B2,,,B3/B4,,,B5/B6,,,E5,,,E4/E6,,,
{1} E3/E7/Ch[1:2],,,1xh[1:1]/8xh[1:1],,
{4} 8b,8,8,,7,7,7,,6,6,6,,5,5,4x/5x,,4,4,4,,3,3,3,,2,2,2,,1,1,1x/8x,,
1b,1,1,1,2,2,12,,8,8,8,8,7,7,78,,6,6,56,,3,3,34,,5,5,
{2} 45,45,3b/6b,2,2,12,12,8,8,7,78,1,1,8,8,1h[4:3]/8h[4:3],,,
{4} 1-5[1:1],,,,,,,,,,8-4[1:1],,,,,,,,,,,2-6[1:1],,,,,,,,,,7-3[1:1],,,,,,,,,18,18,27,27,
{1} 3h[8:3]/6h[8:3],,,E
ADVANCED
(205)
{1} ,,
{4} 4,4,5,5,45,45,36,,7b,7,78,,2,2,12,,7,7,8,8,1,1,28,,3,3,34,,6,6,56,,3,3,4,4,45,45,3x/6x,,
{2} 7h[2:1],8,2h[2:1],1,7h[2:1],8h[2:1],1h[2:1],2,3h[2:1],4,6h[2:1],5,3h[2:1],4h[2:1],5h[2:1],6,
{4} 7,7,8,,2,2,1,,7,7,8,,1,1,28,,3,3,4,,6,6,5,,3,3,4,,45,45,3x/6x,,7z3[1:1],,,,,,,2s6[1:1],,,,,,,
7-4[2:1],,,,3-8[2:1],,,,7,8,2,1,18,18,2x/7x,,
6b,6,56,47,3,3,34,25,1,2,12,38,7,7,78,16,2,2,1,1,8,8,7,7,6,6,5,5,4,5,3x/6x,,
2b,2,12,38,7,7,78,16,5,6,56,47,3,45,36,27,1b/8b,,7,8,1,2,
{2} 18,B7/B8,B1/B2,B3/B4,B5/B6,Cf,,,
{4} 34,34,34,56,56,56,34,34,34,56,56,56,4b/7b,
{2} 3xh[2:1],4h[2:1],5h[2:1],6,7h[2:1],8h[2:1],1h[2:1],2,3-8[2:1],,7-3[2:1],,2-6[2:1],,7-4[2:1],,
{4} 3,3,34,,6,6,56,,3,3,34,,56,56,47,,7,7,78,,2,2,12,,7,7,78,,18,18,2b/7b,,
E4/B3/B4,,,,,,E6/B5/B6,,,,,,E4/B4,,,E2/B2,,,E8/B8,,,E6/B6,,,B2,B3,,B7,B6,,B2,B3,,B7,B6,,
3xh[2:1],,4h[2:1],,5h[2:1],,6,,7,7,8,8,18,18,27,,45,45,36,,
2b,12,2,12,3,34,3,34,6,56,6,56,7,78,7,78,6,5,4,3,2,1,8,7,5>2[2:1]/6<1[2:1],,,,12,38,4x/7x,,
6b,56,6,56,7,78,7,78,2,12,2,12,3,45,36,27,1b/8b,,7,8,1,2,
{2} 18,E3/E7,E2/E8,E4/E6,Cfh[2:3],
{1} ,,8x<3[4:5],,1>6[4:5],,7xh[4:3]/8xh[4:3],
{4} ,,6b,6,5,3,3,4,6,5,4,3,2b,2,1,7,7,8,2,1,8,7,6,7b,7,8,2,2,1,7,8,1,2,3b,3,4,6,6,5,4,4,5,
{8} 4x/5x,,,4x/5x,,,4x/5x,,,4x/5x,,
{1} Cf,,,E
EXPERT
(205)
{1} ,,
{8} 2x/8x,,7,7,5,,6,46,,3,35,,26,,,,
7h[4:1],,5,5,6,,4,4,,35,,46,,8,1,2,2h[4:1],,4,4,3,,6,46,,35,,46,,1,8,7,
7h[4:1],,5,5,6,,4,4,,35,,46,,8,1,2,2h[4:1],,4,4,3,,6,46,,35,,26,,7,47,,
8h[4:1],,5,5,,3,3,,1h[4:1],,4,4,,6,6,,7h[4:1],,5h[4:1],,4h[4:1],,2,2,,8,,46,,3,3,,
1h[4:1],,4,4,,6,6,,8h[4:1],,5,5,,3,3,,2h[4:1],,4h[4:1],,5h[4:1],,7,7,,18,18,,45,,36,,
7-3[4:1],,,,2,2h[4:1],,4h[4:1],,5h[4:1],,7h[4:1],,1h[4:1],,4,4,,57,,8x,8xh[4:1],,5,5,,24,,1x,1x,,6,
6h[4:1],,8h[4:1],,1h[4:1],,3h[4:1],,6,,45,,27,1x,1xh[4:1],,
{4} 8<5[4:1],,1>4[4:1],,8,6,45,36,
{8} 4h[4:1]/7h[4:1],,,2h[4:1]/5h[4:1],,,4h[4:1]/7h[4:1],,,25,,47,47,,
1h[4:1]/6h[4:1],,,3h[4:1]/8h[4:1],,,1h[4:1]/6h[4:1],,,3h[4:1]/8,,5,5,,
{4} 6>3[4:1],,1,2,3-7[4:1],,6-2[4:1],,
{8} 3h[4:3],,,6,6h[4:1],,,,4,5,45,,2x/7x,,,,3b/8b,,12,1-6[8:1]/2-5[8:1],,,,
7,7h[4:1],,5h[4:1],,4h[4:1],,2,,15,,7,7h[4:1],,5,,2,2h[4:1],,4,,45,,5-1[8:1]/7,,
8h[8:3],,,1,,57,,4,4,,26,,35,,1>4[8:1]/7-4[8:1],,,,,28,28,,,1x/7x,
{16} 1x/7x,,,2x/6x,,,
{8} 3x/5x,3xh[4:1]/5xh[4:1],,,,1b/6b,,78,7-4[8:1]/8-3[8:1],,,,2,2h[4:1],,4h[4:1],,5h[4:1],,7,,48,,2,2h[4:1],,4,,7,
{4} 7h[4:1],5,45,2/4-8[8:1],1b,,2h[4:1],4h[4:1],5h[4:1],7h[4:1],8h[4:1],1,2b/7b,E4/E6,3b/6b,B4/B5,1b/8b,B3/B6,
{1} 2h[2:1]/7h[4:5],,
{16} 35,,,35,,,35,,6x,,6x,,47,,,47,,,47,,3x,,3x,,
{16} 25,,,25,,,25,,6x,,6x,,57,,,57,,,57,,4x,,4x,,5x,,5x,,
{4} 3h[8:15],4,4,4,4,4,4,4,6h[8:15],5,5,5,5,5,5,5,3-6[8:1],,
{8} 7,7,5,56,,47,,3,3,5,45,,6-3[8:1],,,,2,2,4,34,,25,,6,46,,37,,
2,,35,,8,8,,57,,24,,6,6,5,,47,,35,,2,2,4,,38,,16,,7,7,5,,
46,3,24,,57,,17,,2,2,4,,15,,37,,6,6,5,,37,,26,,8,8,1,,27,27,,45,,
{4} 3>5[4:3]/6,,,,,56,
{16} 4x/7x,,,4x/7x,,,
{8} 4x/7x,,3,3h[4:1],,1h[4:1],,8h[4:1],,6h[4:1],,4,4,5,,36,,2,,8,8,1,,47,,25,,1,,24,,5,,46,,7,7,
{2} 4>1[4:1],8<5[4:1],
{8} 4,,3,3,
{4} 5-8[4:1],,1-4[4:1],,5h[1:1],4,4,4,4h[1:1],5,5,5,5,
{8} 7,7,5,,46,46,,3,24,,6,57,,18,1-5[8:1]/8-4[8:1],,,,3x/6x,,,,
1b/7b,,28,2-5[8:1]/8-4[8:1],,,,36,3h[4:1]/6,,1h[4:1],,8h[4:1],,6,,15,,3,3h[4:1],,1,,6,6h[4:1],,8,,
2b/7b,,4b-1[8:1]/5b-8[8:1],,,,,18,,24,,5,5,,37,,46,,2-5[8:1]/8<5[8:1],,,,,1x/8x,1x/8x,,,2x/8x,
{16} 2x/8x,,,3x/7x,,,
{8} 4x/6x,4xh[4:1]/6xh[4:1],,,,2b/8b,,17,1-5[8:1]/7-4[8:1],,,,36,3/6h[4:1],,8h[4:1],,1h[4:1],,3,,48,,6,6h[4:1],,8,,3,
{4} 3h[4:1],1,2b/6b,3b-8[8:1]/5b-7[8:1],,,7h[4:1],5h[4:1],4h[4:1],2h[4:1],1h[4:1],8,
3b/7b,E4/E6,2b/6b,E5/B4/B5,1b/8b,E4/E6/B3/B6,2b/7b,4>5[4:3]/5,Cf,,,,7,57,4,35,2,24,5,46,
{8} 7,7,
{4} 1,26,37,2,24,5,67,18,23,45,6h[4:1]/7h[8:3],,,,3x/5x,
{8} 4,4,5,,
{16} 46,,,35,,,
{8} 24,,1,1,4,4,3,,
{16} 35,,,46,,,
{8} 57,,8,8,3,,
{16} 35,,,46,,,
{8} 57,,8,8,5,5,6,,
{16} 46,,,35,,,
{8} 24,,1,1,6,6,4b,,
{16} 46,,,35,,,
{8} 24,,1,1,4,4,3,,
{16} 35,,,46,,,
{8} 57,,8,8,2-6[8:1],,7-3[8:1],,,,,1,1,4,,47,,8,8-4[8:1],,3,,2b,,
1h[4:1]/4h[4:1],,,3h[4:1]/6h[4:1],,,5h[4:1]/8h[4:1],,,36,,
{1} Ch[2:1],,,E
MASTER
(205){16}
3h[4:1],,,,6,,6h[2:1],,3,,,3,,,3h[4:1],,
,6,6h[2:1],,3,,,3,,,3h[4:1],,,,6,6,
{8}4b/5b,3,2,3,46,7,56,56,
,15,37,,4b/8b,2b/6b,,,
45,,7,6,3,5,2,2h[4:1],
,{16}4,4,{8}3,5,2,7,6,4,
35,,2,4,3,5,4,7h[4:1],
,{16}5,5,{8}6,4,7,5,46,,
35,,2,3,6,4,7,7h[4:1],
,{16}5,5,{8}6,4,7,2,3,5,
46,,7,7,3,5,2,2h[4:1],
,{16}4,4,{8}3,5,1,1,2/7-4[8:1],36,
4,,2,2v1[8:1],,7,7-4[8:1],7,
3,,2,2,,6,6,5,
E7,B5,E3,B4,E6,E5,E4,C,
,E2/E8,,B4/B5,,8,2-5[8:1]/7,36,
5,,7,7v8[8:1],,2,2-5[8:1],2,
6,,7,7,,3,3,4,
E3,B4,E7,B5,E4,E5,E6,1,
,1,2q3[4:1],7,8^5[8:1],,,,
2x,1,1h[4:1],,3,4h[4:1],2,2h[4:1],
,1,8,3,,56,,{16}2,4,
3,,6,5,6,,3,4-1[16:1],2h[16:3],,,,,,7,5,
6,,3,4,3,,6,5-8[16:1],{8}7h[16:3],,,2,
34,,7,5/6h[4:1],,1,2,3,
8,2,1-6[8:1],,5,4x,4x,1,
2h[8:1],1,8h[8:1],2,3h[8:1],7h[8:1],4,4,
6-3[4:1],,3^6[4:1],,1,,1x,,
37,{16}5,5,4,,26,,4,4,5,,3/7h[16:5],,,,2h[8:1],,,3h[16:3],,,4,,5,,3,,
26,,4,4,5,,37,,5,5,{8}4,2h[16:3]/6h[4:1],,,15,26,37,4^1[8:1]/8^5[8:1],,
4b/8bs4[8:3],,,,,,,36,
36,,,,B3/B4/B5/B6/B7/B8,,2h[4:1],,
1,1,3,3,4,4,5,5,
6,46,5,6,37,6b,4b,2b,
{32}1b/8b,27,36,45,{8},,1-6[8:1],,7-3[8:1],,5,
5>7[8:3],,1<5[4:1],,5V31[4:1],,1,,
7-3[8:1],,8,8-5[8:1],,4,,1,
1-5[8:1],,7^2[8:1],,4^7[8:1],,8-3[8:1]*-5[8:1],,
8b,,,2-5[8:1]/6-1[8:1],,,,37,
3-8[8:1]/7,,6-1[8:1],,2^5[8:1],,8p1[8:3],,
Cf,,,8,8,,,17,
{16}17,,,38,,,{8}46,46,3b,5b,7b,
{32}1b/8b,27,36,45,{8},,8-3[8:1],,2-6[8:1],,4,
4<2[8:3],,8>4[4:1],,4V68[4:1],,8qq8[8:3],,
1x,,,2-6[8:1],,1,,8,
{4}1-3[8:1]/8-3[8:1],1-6[8:1]/8-6[8:1],1-3[8:1]/8-3[8:1],1-5[8:1]/8-4[8:1],
1b/8b,,1h[4:1],3h[4:1],
5h[4:1],7h[4:1],2,4^1[8:1]/5,
B2/B3,5^8[8:1],B6/B7,4^1[8:1],
B8/E1,5^8[8:1],Ch[2:1],,
,,,,,4x/5x,
{16}25,,,36,,,4/7h[8:1],,8,1,2,3,
47,,,36,,,2h[8:1]/5,,1,8,7,6,
35,,,46,,,5/7h[8:1],,8,1,2,3,
46,,,35,,,24,,1,,17,,17,,1b/7b,2b/6b,
{4}3b/5b,3,3,3,3,3,3,{8}3,5h[16:1],
{4}3,3,3,3,3,3,3,35,
{8}2^4[8:1]/6,,5,6,7-5[8:1],7,4,3,
2^4[8:1],2,5,6,7-5[8:1],7,4,3,
2^4[8:1],2,5,6,7,7,4,4,
35,3,{16}6,5,,3,4,,26,,2b/6b,,,,
37,,6,6,5,,7,,4,,4,,35,,2,,
18,,7,,46,,3,3,4,,6,,47,,3,,
26,,3,3,4,,2,,5,,5,,46,,7,,
18,,2,,35,,6,6,5,,3,,25,,6,,
37,,6,6,5,,7,,4,,4,,35,,2,,
18,,7,,46,,3,3,4,,6,,47,,3,,
26,,3,3,4,,2,,5,,5,,46,,7,,
18,,2,,35,,6,6,5,,4,,35,,6,,
2h[8:1]/7h[8:1],,,3h[8:1]/6h[8:1],,,{8}45,36,,,,
,,3b/6b<4[2:1],,Cf,,,,
,1,1h[4:1],,7,7h[4:1],,5,
{4}5,48,5/7p4[2:1],C,1,2q5[2:1],C,8,
7p4[2:1],C,2,1xs5[8:3],8b,,{8},7,7h[4:1],,
5,5h[4:1],,4,{4}4,45,
3p4[8:3],C,8,7p8[4:1],C,,17,3v8[2:1]/5v8[2:1],
,,,{16}7,,6,,
45,,3,4,2,,15,,6,5,7,,8,,28,,
3,,3,,4,,6,,6,,5,,7,,3,3,
{8}4,2,24,24,5b,7b,1b-4[8:1]/8b-5[8:1],3b/6b,
{32}1b/8b,B1/B8,Cf/E4/E6,B4/B5,{8},,3h[4:1]/7-3[8:1],,7,,28,
3V15[4:1]/7,,5V31[4:1],,3,,7-3[8:1],,
2-6[8:1],,5,5h[4:1],,4,,12,
3^6[8:1]/8,,3/7-3[8:1],,1-6[8:1]/7,,1/5x-1[8:1]*-2[8:1],,
{32}5b,B5,Cf,B1,{8},,2x/6x-8[8:1],,1-5[8:1],,5,
6^1[8:1],,2-6[8:1],,8-4[8:1],,3>6[4:1],,
6,,5-8[8:1],5x,3x,,,17,
{16}26,,,34,,,{8}56,4b,2b,1b-4[8:1]/8b-5[8:1],3b/6b,
{32}1b/8b,B1/B8,Cf/E4/E6,B4/B5,{8},,2x-6[8:1]/6x-1[8:1],,26,,58,
4/7v4[8:1],,3-7[8:1]/7,,3/8v3[8:1],,28,,
15,,6,5V37[4:1]/6,,7,,8,
1^4[8:1]/8q4[8:1],,1p5[8:1]/8^5[8:1],,1^4[8:1]/8q4[8:1],,1w5[8:1]/8,,
{40}1b,E1/E2`B1,B2/B8,B3/B7/Cf,E4/E7`B5,{8},{4},8hx[4:1],6h[4:1],
4h[4:1],2h[4:1],8,7^2[8:1],2b/7,3>7[8:1],3/7b,5<2[8:1],
2b/5,3>5[32:7],{32}3b/Cf,E3,E2,E1,E8,E7,E6,,{8},,
8x,,6,5,47,6,25,3,
4,3,25,6,57,57,48,{16}3,3,
4,,2,,5,,6,6,5,,7,,4,,3,,
24,,1,1,5,6,7,8,2,3,4,5,8,7,6,5,
2,1,2,,38,,4,,56,,7,8,7,,1,,
24,,3,,57,,6,,4,5,4,5,4z8[2:1],5s1[16:7],4,5,
{4},,,3b/7b,{16}2,6,4,5,1b,,,,
7b/8b,,6,5,,2,1,,3/8-4[8:1],,7-3[8:1],,8,,7,,1,,15,,6,5,
7,,2,1,,3,4,,1/5-2[8:1],,6,,57,,8,,1,,
2b/8b,,3,4,,7,8,,1-5[8:1]/6,,2-6[8:1],,1,,2,,8,,48,,3,4,
2,,7,8,,6,5,,4-8[8:1]/7,,3,,24,,1,,7,,5b,,3b,,
2b/6b,,3,4,,6,5,,4-8[8:1]/7,,3-7[8:1],,4,,3,,5,,15,,2,4,
3,,7,8,,6,{8}5,37,45,26,1-4[8:1]/7v4[8:1],,
1v6[8:1]/7,,1,8h[4:1],,4,3,25,16,78,1/6-1[8:1],2-5[8:1],
6-3[8:1],2-6[8:1],6,2,8x,8x,
1b/7b,{16}2,4,3,,2b/8b,,7,5,6,,3b/5b,,6,8,7,,2b-6[8:1],1,2,3,{1}2b,,E
Re:MASTER
- Small timing error spotted. Fixed -- Cata_Box (2021-06-07 12:13:26)
最終更新:2026年04月12日 09:13