BASIC
ADVANCED
EXPERT
MASTER
(200)
{4}1b/8x,4x/5b,{24}B1,B8,B7,B6,B5,B4,{4}B3,
{2}2b>1[1:2],B1,,B2,1>8[1:2],B3,,B4,8>7[1:2],B5,,B6,7>3[4:5],B7,,B8,
{8}26,,4/8-4[8:1],48,{4}4^1[8:1]*^7[8:1]/8,,,8,1,2,
37,{8}1-5[8:1]/5,15,{4}1/5^2[8:1]*^8[8:1],,,1,8,7,
16,{8}3/7-3[8:1],37,{4}3^6[8:1]*^8[8:1]/7,,,7,18,2,
38,{8}2-6[8:1]/6,26,{2}2/6^1[8:1]*^3[8:1],B1/B2/B3/B8/Cf/E2,,
{8}45,6,7/8h[4:1],,1,,2,2,{4}1,1/B3/E4,8/B4/C,7/B5/B6,
{8}7,8,1/2h[4:1],,3,,4,4,{4}3,7/B3/B4,2/B5/B6,{16}E2,E8,E4,E6,
{4}C,1h[4:1]/2,8,{8}7,7,{4}8,8/B6/E6,1/B5/C,2/B3/B4,
{8}2,1,7h[4:1]/8,,6,,5,5,{4}6,2/B5/B6,7/B3/B4,{16}8b,1b,8b,1b,
{8}8b,,3,12,8,12,3,45,6,78,1,78,6h[4:1],,8b,,45,,6,78,1,78,6,45,3,12,8,12,3h[4:1],,1b,,
12,12,34,34,56,56,78,78,{16}1,5,6,3,4,8,2,7,1,6,3,8,2,7,4,5,
{4}C,,,,4z8[4:1]/5h[2:1],,,2b/6b,
8-5[16:1],4-1[16:1],7-2[16:1],3-6[16:1],8-4[16:1],2-6[16:1],7-3[16:1],{8}1,1,
{4}1-4[16:1],5-8[16:1],2-7[16:1],6-3[16:1],1,{8}24,24,,68,6b/8b,,
{4}7-5[16:1],8-4[16:1],1-5[16:1],2-4[16:1],7,{8}68,57,,24,1-5[8:1]/3,,
{32}1b/8b,Cf,,,{4},6h[16:1],3h[16:1],{8}45,{4}4s8[4:1]/5z1[4:1],,,B1/B4/B5/B6/B7/B8,
3-6[16:1],2-7[16:1],1-4[16:1],8-5[16:1],7-2[16:1],6-3[16:1],{16}1,,1,,1,8,1,8,
{4}1-5[16:1],4-7[16:1],6-2[16:1],8-4[16:1],1,{8}57,57,,13,1b/3b,,
{4}2-4[16:1],1-5[16:1],8-4[16:1],7-5[16:1],2,{8}18,36,,27,{16}5,4,5,,
{4}B3/B4/E3,B5/B6/E7,{16}18,,18,,27,36,45,,{4}B2/B3/B6/B7/Chf[4:3],,,B1/B4/B5/B6/B7/B8,
{2},23,18,67,{12}4,,4,5,,5,3,4,2,6,5,7,{2}1h[2:1],7-2[8:1],
{4}56,6,6,{12}6,1,1,{4}1s5[4:1]/6,6,6,{12}6x,5x,4x,
{4}3x,3,3,{12}3,2,2,{4}2h[6:1]/3h[6:1],4h[6:1]/5h[6:1],6h[6:1]/7h[6:1],Cf,
34,3,3,{12}3,8,8,{4}3/8z4[4:1],3,{8}3,{24}3x,4x,5x,{12}6x,4x,5x,
{8}4hx[4:1],8,6hx[4:1],1,3hx[4:1],8,5hx[4:1],1,C,,,,,,{16}5,4,5,4,
B3/Cf,,,,7,8,7,8,B4/Cf,,,,8,1,8,1,B5/Cf,,,,1,2,1,2,8x,,3,4,,2,1,,
B6/Cf,,,,2,1,2,1,B5/Cf,,,,1,8,1,8,B4/Cf,,,,8,7,8,7,1x,,6,5,,7,8,,
B3/Cf,,,,7,8,7,8,B4/Cf,,,,8,1,8,1,B5/Cf,,,,1,2,1,2,8x,,3,4,,2,1,,
{8}4>5[8:3],5,5,5,4,4,{32}4x,3,2,1,8,7,6,5,{4}4,,,3<2[4:5],
{1}4h[2:5],,Ch[2:3],8h[2:7],7>6[4:5],,Ch[2:3],6h[1:1],
{8}2b,,3x-6[16:1]/7x-4[16:1],3x/7x,{4}3x>6[8:3]/7x>4[8:3],,,,46,5,
{8}3b/7b,,2x-5[16:1]/6x-3[16:1],2x/6x,{4}2x<5[8:3]/6x<3[8:3],,,,35,4,
{8}2b/6b,,3x-8[16:1]/7x-2[16:1],3x/7x,{4}3x<8[8:3]/7x<2[8:3],,,,28,1,
{8}3b/7b,,2x-7[16:1]/6x-1[16:1],2x/6x,{1}2x>7[8:3]/6x>1[8:3],{16}8,,8,,4,5,4,5,
{8}3x/6x,,1<4[4:1]/2,3,4b<1[4:1],,1b,,2,2,,34,,4,5,6,
78,,1<4[4:1]/2,3,4b<1[4:1],,1b,,2,2,,34,,4,5,6,
78,78,56,56,34,34,12,12,{16}8,4,6,3,5,1,7,2,8,3,6,1,7,2,5,4,
{4}C,,,,4h[2:1]/5s1[4:1],,,3b/7b-5[8:1],
7x/8x-4[8:1],1x/8x,{16}12,,3,4,{8}3,25,6,7/8^5[8:1],,1x/8x,,2,2-4[16:1],,
1x-5[8:1]/2x,,1x/8x,,78,{16}6,5,{8}6,47,3,1/2-7[8:1],,2x/7x,,{16}8,8,1b/7b-5[16:1],,,,
{4}7x/8x-4[8:1],1x/8x,{16}12,,3,4,{8}3,25,6,7/8^5[8:1],,1x/8x,,2,{16}3,4,3,4,
{8}3-6[8:1],,,,7h[8:1],8h[8:1],1h[8:1],2h[8:1],{4}3pp6[4:1],,,1b-7[8:1]/8b,
1x/2x-6[8:1],2x/3x,{16}34,,2,4,3,,7,5,{8}6,4x/5x^2[8:1],,5x/7x,,8,8-2[16:1],,
7x-3[8:1]/8x,,6x/7x,,56,{16}7,5,6,,2,4,{8}3,4x-8[8:1]/5x,,3x/4x,,{16}2,2,1b-7[16:1]/3b,,,,
{4}1x/2x-6[8:1],2x/3x,{16}34,,2,4,3,,7,5,{8}6h[8:1],7h[8:1],5h[8:1],8h[8:1],4h[8:1],1h[8:1],3h[8:1],2h[8:1],
4,15,26,37,{16}4,8,4,8,6<4[8:3],2,6,2,{2}6b,8w4[8:1],
{4}2-5[16:1],2x/6-1[16:1],3-8[16:1]/6x,3x/7-4[16:1],1-5[16:1]/7x,1x/7-3[16:1],2-6[16:1]/7x,{8}8b,8b,
{4}8b-5[16:1],4-1[16:1]/8x,4x/7-2[16:1],3-6[16:1]/7x,3x/8x,{8}57,24,,68,1b/3b,,
{4}2-4[16:1],1-5[16:1]/2x,1x/8-4[16:1],7-5[16:1]/8x,2x/7x,{8}1x/8x,3x/6x,,2x/7x,{16}4x,5x,4x,,
{8}5b/6b,7b,1b/8b,2b,3b/4b,5b/6b,{16}7,8,7,8,{24}E1/E7,B1/B6,B2/B5,
{8}E3/E5,,,{4}4w8[16:1],B2/B6/Cf,
{1},,,,
E
Re:MASTER
最終更新:2026年04月11日 21:50