BASIC
ADVANCED
EXPERT
MASTER
(172)
{16}4,5,4,5,4,5,4,5,4,5,4,5,3b/6b,,,,
2h[8:1]/4h[8:1],,,2h[8:1]/4h[8:1],,,24,,3,5,3,,5h[8:1]/7h[8:1],,,5h[8:1]/7h[8:1],,,57,,6,4,6,,
3h[8:1]/5h[8:1],,,3h[8:1]/5h[8:1],,,35,,2,4,2,,4h[8:1]/6h[8:1],,,4h[8:1]/6h[8:1],,,46,,7,5,7,,
2h[8:1]/4h[8:1],,,3h[8:1]/5h[8:1],,,46,,8,5,8,,5h[8:1]/7h[8:1],,,4h[8:1]/6h[8:1],,,35,,1,4,1,,
2h[8:1]/4h[8:1],,,3h[8:1]/5h[8:1],,,46,,8,5,8,,5h[8:1]/7h[8:1],,,4h[8:1]/6h[8:1],,,35,,1,4,1,,
{16}7^5[8:1],,,4,,,2^4[8:1],,,5,,,7^1[8:1],,,2,,,3^5[8:1],,,6,,,
7p3[8:1],,,8,,,2q6[8:1],,,1,,,7^4[8:1],,,8,,,1-5[8:1],,,8,,,
{16}8b,,6,4,6,4,6,4,5,3,5,3,6,2,6,2,7,6,5,4,1,2,3,4,
{6}5x/7hx[6:1],8,16,2h[6:1],1,38,{4}8b^3[8:1]*^5[8:1],8bw4[8:1],8b,2b/6b,
{16}34,,2-5[8:1],1,,1,{8}2,6,5x/7x,6,45,3,{16}3,4,,4,2,,18,,7,8,,8,6,,
56,,7-4[8:1],8,,8,{8}7,3,2x/4x,3,45,6,{16}6,5,,5,7,,18,,2,1,,4,5,,
{2}B3/B4/B5/B6/Cf/E3/E7,{16}2x,,2x,,8,1,8,1,7,6,5,4,1,2,3,4,8,7,6,5,8,1,2,3,
7V51[16:3]/4,,,1,,,3,,2V48[16:3],,,8,,,{8}7,16,5,34,2,18,7,2b/6b,,
47,{16}6,5,,5,6,,7-4[8:1],8,,8,7,,3,,1,,3,4,,4,2,,18,,7,8,,8,6,,
25,,3,4,,4,3,,2-5[8:1],1,,1,2,,6,,8,,6,5,,5,7,,18,,2,8,1,7,3^8[8:1],,,,
{24}3b/8b,7,6,5,,,{16}2/6^3[8:1],,,1,,,2q7[8:1],,,8,,,1^6[8:1],,,5,,,
{16}2^5[8:1],,,6,,,8,,{4}58,14,{16}18,,6,57,,3,{4}24,
{24}36,5,4,3,2,1,8,7,6,{4}1b/5b,,,,,,,{16},,E3,B3,B4,,B8,B7,{4}E7,,,,,,
{16},,E7,B6,B5,,B1,B2,{4}E3,,,,,,{16},,E7,B6,B5,,B1,B2,{4}E3,,,
{8}4h[4:1]/5h[4:1],,,{24}3,4,3,{16}5,,,2,,,25,,
{8}6h[8:1],5,6h[8:1],7,6h[8:1],5,6h[8:1],7,6h[8:1],5,6h[8:1],7,6h[8:1],5,6h[8:1],1,
3h[8:1],4,3h[8:1],2,3h[8:1],4,3h[8:1],2,3h[8:1],4,3h[8:1],2,{16}35,,,46,,,15,,
2h[8:1]/8h[8:1],,,4h[8:1]/6h[8:1],,,37,,,,,,1h[8:1]/7h[8:1],,,3h[8:1]/5h[8:1],,,26,,{4}2b-5[8:1]/6b-1[8:1],26,
{16}37,,6,5,6,3,4,3,6,5,6,3,4,3,6,5,7h[16:3],,,8,,,16,,2h[16:3],,,1,,,3q5[8:23]/7q1[8:23],26,
{1}1b/5b,,,{2},{16},,4,5,3b/6b,,,,
{8}4-8[8:1]/5,3,24,1,3x/8x,{16}2,1,,3,{8}4,2/5-1[8:1],6,57,8,1x/6x,{16}7,8,,6,5,,
{8}4q8[8:1]/7,3,24,1,3x/8x,{16}2,1,,3,{8}4,2/5p1[8:1],6,57,8,1x/6x,{16}7,8,7,8,6b,,
{8}1p5[8:1]/5,2,13,4,2x/5x,{16}3,4,,2,{8}12,3/8q4[8:1],7,68,5,4x/7x,{16}6,5,,7,78,,
46,,2-5[8:1],1,,1,2,,6,,7-4[8:1],8,,8,7,,3,,2,1,,1,2,,4/7b,,,2b/5,,,1/8b,,
45,,B8/E8,,5,4,B6/E7,,45,,B8/E8,4,5,4,B6/E7,,45,,B8/E8,,5,4,B6/E7,,45,,B8/E8,4,5,4,B6/E7,,
45,,B8/E8,4,5,4,B2/E2,,45,,B8/E8,4,5,4,B2/E2,,45,,B8/E8,4,5,4,B2/E2,,3x/8x,,,4x/6x,,,1x/5x,,
2h[8:1]/8h[8:1],,,4h[8:1]/6h[8:1],,,37,,,,,,1h[8:1]/7h[8:1],,,3h[8:1]/5h[8:1],,,26,,{4}2b-5[8:1]/6b-1[8:1],26,
{16}37,,5,1,5,1,5,1,6,2,7,3,8,4,1,5,{8}2h[8:3]/6h[8:3],,,{32},1x/5x,4x/8x,3x/7x,2x/6x,1x/5x,4x/8x,,,,,,{4}2b/6b,
1h[4:1]/8h[2:1],,{24}1x,8x,1x,8x,1x,8x,2x,7x,2x,7x,2x,,{16}3x/6x,,2,1,3,8,4,7,5,6,8,7,1,6,2,5,
{8}24,35,46,5/7h[8:1],{16}6,7,4,5,2,3,1,8,5,6,1,8,3,4,1,8,5,6,1,8,2b/7b,,,,
{8}2,34,45,5/6h[8:1],{16}7,6,1,8,3,2,3h[4:1],,,,4,3,1,2,8,3,7,8,6,1,4,3,5,2h[16:3],
,,3,2,5,4,7h[4:1],,,,6,7,4,5,2h[16:3],,,3,2,5,4,7,6,8,1-5[8:1],7,2,8,1b,,,,
46,,7,,1,8,1,,2b/5,,,4/7b,,,1b/8,,,,45,,3,4,3,,25,,2,1,,6,5,,
36,,7-4[8:1],8,,8,7,,3,,2-5[8:1],1,,1,2,,6,,7,8,,3,4,,2x/4x,,,5x/7x,,,4x/5x,,
{4}3/6h[4:1],{24}4,5,4,5,4,5,3,6,3,6,3,6,2,7,2,7,2,7,{16}1x,2,3,4,8,7,6,5,1,2,3,4,8,7,6,5,
1h[8:1]/4h[8:1],,,3h[8:1]/6h[8:1],,,47,,5h[8:1]/8h[8:1],,,3h[8:1]/6h[8:1],,,25,,{12}1,1,7,7,5,5,4,4,2,2,8,8,
{16}5h[8:1]/7h[8:1],,,4h[8:1]/6h[8:1],,,35,,{24}12,8,7,6,5,,{16}2h[8:1],,,3h[8:1]/5h[8:1],,,46,,{24}78,1,2,3,4,,
{16}7h[8:1],,,4h[8:1]/6h[8:1],,,35,,{24}12,8,7,6,5,,{16}2h[8:1],,,3h[8:1]/5h[8:1],,,46,,{24}78,1,2,3,4,,
{16}5hx[8:1]/7hx[8:1],,,4h[8:1]/6h[8:1],,,3h[24:5]/5,,{24}2b,1,8,7,6,5,
{16}2h[8:1]/4h[8:1],,,3h[8:1]/5h[8:1],,,4/6h[24:5],,{24}7b,8,1,2,3,4,
{16}5h[8:1]/7h[8:1],,,4h[8:1]/6h[8:1],,,3h[24:5]/5,,{24}2b,1,8,7,6,5,
{16}2h[8:1]/4h[8:1],,,3h[8:1]/5h[8:1],,,4/6h[24:5],,{24}7b,8,1,2,3,4,
{16}5b/8b,,,4h[8:1]/7h[8:1],,,2h[8:1]/5h[8:1],,,46,,,
3h[8:1]/E1,,,2h[8:1]/5h[8:1],,,4h[8:1]/7h[8:1],,,16,,,
7h[8:1]/C,,,1h[8:1]/6h[8:1],,,3h[8:1]/8h[8:1],,,16,,,
2h[8:1]/E5,,,3h[8:1]/8h[8:1],,,1h[8:1]/6h[8:1],,,45,,,
{16}7b/8b,,6,5,6,,4b/7b,,3,4,3,,2b/5b,,7,8,7,,1b/6b,,2,1,2,,{4}3b/8bw4[8:1],8b,
{12}15,15,15,3-8[8:1]/7-4[8:1],37,37,37,,,{24}1,5,1,5,1,5,1,5,1,5,1,5,1,,,,,,
{32}2x/8x,3,4,5,6,7,8,1,2x/6x,3,4,5,6,7,8,1,2x/4x,3,4,5,6,7,8,1,
{8}2b/6h[8:9],,,,,,,,,C,,{16}1,5,
{1}3b/7b,,,
E
Re:MASTER
- 譜面をコピペしてmaipad plusでプレイしようとしたらエラーを吐きました、maipad plusの作者様曰くエラーを吐くのは構文ミスが原因らしいのですが、 -- 名無しさん (2021-09-10 01:00:10)
- (途中送信すいません)もし可能であれば、修正箇所があるのならば、修整をお願いします。 -- 名無しさん (2021-09-10 01:02:59)
- ご指摘ありがとうございます。simaiのほうでは一切エラーをはきません。 -- 嵐雅 (2021-09-10 17:54:37)
- そもそも、maipadplusではデラックス譜面をプレイすることは不可能だと思いますがそこのほうはいかがでしょうか。実は僕もxenovcipherやってみたんですけどDX譜面だからかダメでして…。 -- 嵐雅 (2021-09-10 17:55:30)
- ちなみに私はこちらの譜面を再現させていただいたものです。 -- 嵐雅 (2021-09-10 17:55:57)
- maipadplusではでらっくす譜面を遊べないということを失念しておりました…お騒がせしました… -- 名無しさん (2021-09-26 22:58:25)
- MASTER譜面のノーツの配置ミス、SLIDEの速度の修正、BPMの修正を行いました。なお、公式で一度譜面が修正されており、こちらの譜面データは修正後の譜面となっています。 -- けもがみ (2026-04-21 12:58:06)
最終更新:2026年04月21日 12:58