EASY
BASIC
(194.0){1},
{2}1,1,
{4}8,8,8,,
{2}1,1,
{2}2,2,
{2}3,3,
{2}4,4,
{2}5,5,
{2}6,6,
{2}7,7,
{2}8,8,
{4}8,8,8,,
{4}7,7,7,,
{4}6,6,6,,
{4}5,4,5,,
{4}4,4,4,,
{4}3,3,3,,
{4}2,2,2,,
{4}1,1,1,,
{1}1b/8b,
{2}1,1,
{4}2,1,2,,
{2}3,3,
{4}4,5,4,,
{2}5,5/6,
{2}6,5/6,
{2}7,7b/8b,
{4}8,8,8,,
{2}8,8,
{4}7,8,7,,
{2}6,6,
{4}5,4,5,,
{2}4,3/4,
{2}3,3/4,
{2}2,1/2,
{4}1,1,1,,
{1}1-5[4:3],,
{1}8-4[4:3],,
{1}2-5[4:3],,
{2}7,7,
{4}8,1,8,,
{4}1,1,1,,
{4}2,2,1/2,,
{4}3,3,3,,
{4}4,4,4/5,,
{4}5,5,5,,
{4}6,6,5/6,,
{1}7h[1:1]/8h[1:1],,
{4}8,8,8,,
{4}7,7,7/8,,
{4}6,6,5,5,
{2}4/5,4/5,
{4}4,4,4,,
{4}3,3,3,,
{4}2,2,2,,
{4}1,8,1b,,
{4}1,1,1,,
{4}2,1,2,,
{4}3,3,3,,
{4}4,5,4,,
{4}5,5,5,,
{4}6,5,6,,
{1}7-3[4:3],,
{2}1/2,1/2,
{2}7/8,7b/8b,{1},
{4}8,8,7,7,
{4}6,6,4/5,,
{4}4,4,3,3,
{4}2,2,1/8,,
{4}2,1,2,,
{4}7,8,7,,
{1}1h[1:1]/8h[1:1],
{2},1/8,
{4}1,1,2,2,
{4}3,3,4/5,,
{4}5,5,6,6,
{4}7,7,1/8,,
{2}7/8,7/8,
{2}1/2,1/2,
{2}1,1,
{4}8,8,8,,
{2}8,8,
{4}1,1,1b,,
{4}2,2,2,,
{4}3,3,3,,
{4}4,4,4,,
{4}5,4,5,,
{4}6,6,6,,
{4}7,7,7,,
{4}8,8,8,,
{4}1,8,1,8b,
E
ADVANCED
(194.0){1},
{4}4,4,5,5,
{1}4-1[4:1]/5-8[4:1],
{4}1,1,2,2,
{4}3,3,3/4,,
{4}8,8,7,7,
{4}6,6,5/6,,
{4}2,2,3,3,
{4}4,4,5/6,,
{4}7,7,6,6,
{4}5,5,3/4,,
{4}4,4,3,3,
{4}4,3,2/5,,
{4}5,5,6,6,
{4}5,6,4/7,,
{4}1,1,2,2,
{4}1,2,3/8,,
{4}8,8,7,7,
{4}8,7,1/6,,
{1}1-4[4:1]/8-5[4:1],
{4}4,4,3,3,
{4}3/4,4/5,5/6,,
{4}5,5,6,6,
{4}5/6,4/5,3/4,,
{4}5,5,6,6,
{4}7,7,8,8,
{4}8,7,5/6,5/6,
{4}4,3,1/2,,
{4}8,8,7,7,
{4}7/8,1/8,1/2,,
{4}1,1,2,2,
{4}1/2,1/8,7/8,,
{4}8,8,7,7,
{4}6,6,5,5,
{4}5,6,7/8,7/8,
{4}1,2,3/4,3/4,
{1}2>8[4:3],
{4},,1b,1b,
{1}7<1[4:3],
{4},,8b,8b,
{4}1,2,3,4,
{4}5/6,4/7,8b,8b,
{4}8,7,6,5,
{4}3/4,2/5,1b/6b,,
{4}1,1,2,2,
{4}3/8,3/8,3/8,,
{4}8,8,7,7,
{4}1/6,1/6,1/6,,
{4}4,4,3,3,
{4}2/5,2/5,2/5,,
{4}5,5,6,6,
{4}4/7,4/7,4/7,,
{4}1,2,1,2,
{4}3/8,3/8,3/8,,
{4}8,7,8,7,
{1}1b/6b,
{1}7-4[4:1]/8-3[4:1],
{1}1-6[4:1]/2-5[4:1],
{4}4/5,3/6,2/7,1/8,
{1}1^4[4:1]/8^5[4:1],
{2}3h[2:1],4,
{2}6h[2:1],5,
{2}2h[2:1],3,
{2}7h[2:1],6,
{2}2h[2:1],1,
{2}7h[2:1],8,
{2}3h[2:1],2,
{2}6h[2:1],7,
{1}3qq7[4:5],,,
{4}1,2,3,4,
{4}5/6,5/6,4/7,,
{4}8,7,6,5,
{4}5/6,4/7,3/8,,
{4}6,5,4,3,
{4}4,5,6,7,
{4}8,1,2,1,
{4}1/2,1/8,7/8,,
{4}4,3,2,1,
{4}7/8,7/8,1/6,,
{4}5,6,7,8,
{1}1b/6b,
{4}7,8,1,2,
{4}1,8,7,6,
{4}5,4,3,4,
{4}3/4,4/5,5/6,,
{1}5-2[4:1]/6-1[4:1],
{1}3-8[4:1]/4-7[4:1],
{4}1,1,2,2,
{4}3,3,4,4,
{4}5,6,7,8,
{4}7/8,1/8,1b/2b,,
{4}8,8,7,7,
{4}6,6,5,5,
{4}4,3,2,1,
{4}1/2,1/8,7b/8b,
E
EXPERT
(194)
{8}18,,27,27,,18,,36,,36,,45,45,,,,
{1}2q5[2:1],7p4[2:1],2qq5[2:1],7pp4[2:1],3p8[2:1],2h[1:1]/7h[1:1],
{8},2b/7b,,,4,5,4,5,{4}4,36,4-2[8:1]/5-7[8:1],,
{8}1,8,2,8,3,8,2,,5,4,6,4,7,4,6,,1,8,2,8,3,8,2,,{4}34,5-2[4:1]/6-1[4:1],,,
{8}8,1,7,1,6,1,7,,4,5,3,5,2,5,3,,8,1,7,1,6,1,7,,{4}56,7-4[4:1]/8-3[4:1],,,1w5[2:1],,,,
7h[4:1],8,6h[4:1],5,8-5[4:1],1,2b,,2h[4:1],1,3h[4:1],4,1-4[4:1],8,7,4b,
{2}7-5[8:1],8-4[8:1],1-5[8:1],2-4[8:1],5-8[8:1],4-1[8:1],{4}8,18,27,3b/6,
{2}1h[4:1]/2h[4:1],3h[4:1]/8h[4:1],{8}2,1,3,8,4,,56,,
{2}7h[4:1]/8h[4:1],1h[4:1]/6h[4:1],{8}7,8,6,1,5b,,34,,
{4}3h[4:3],4,4,4,6h[2:1],5,5,1s5[2:1],,,,36,56,45,34,36,
4-2[8:1]/5-7[8:1],,{8}1,1,{4}8,4-2[8:1]/5-7[8:1],,1b,8b,
4-2[8:1]/5-7[8:1],,{8}8,8,{4}1,5-1[8:1]/6-8[8:1],,3-1[8:1]/4-8[8:1],,
4-2[8:1]/5-7[8:1],,{8}8,8,{4}1,4-2[8:1]/5-7[8:1],,8b,1b,5<4[2:1],,,,{8}2,8,2,8,1b,,,,
{4}18,27,45,27,{8}18,1^4[4:1]/8^5[4:1],{4},,,27,34,5-3[8:1]/6-8[8:1],,{8}12,12,,7,7,8,,,
{4}7h[4:1],6h[4:1],5h[4:1],4,2h[4:1],3h[4:1],4h[4:1],5,5w1[4:3],,,,{8},7b/8b,7b/8b,7b/8b,7b/8b,,,,
{4}56,45,34,16,{8}78,7^4[4:1]/8^3[4:1],,,{2},2-7[8:1],5-8[8:1],27,{4}4,5,
{1}6<2[2:1],3<7[2:1],{8}18,,27,27,,18,,34,,27,27,18,1-4[8:1]/8-5[8:1],,,,
{4}3h[4:3],1,8,7,6h[4:3],8,1,2,3h[2:1],1,6h[2:1],8,3h[2:1],1,6h[2:1],8,{2}4-2[4:1],5-7[4:1],3-1[4:1],6-8[4:1],
{4}1,1-4[4:1]*-6[4:1],,,8,8-3[4:1]*-5[4:1],,,1s5[2:1],,,,8p1[2:1],,,,,,1h[4:1]/8h[4:1],,
18,27,4-2[8:1]/5-7[8:1],,{8}18,1^4[4:1]/8^5[4:1],{4},,,27,56,3-1[8:1]/4-8[8:1],,,{8}78,78,,2,2,1,,,
{4}2h[4:1],3h[4:1],4h[4:1],5h[4:1],7h[4:1],6h[4:1],5h[4:1],4w8[4:3],,,,{8},1b/2b,1b/2b,1b/2b,1b/2b,,,,
{4}34,45,5-3[8:1]/6-8[8:1],,{8}12,1^6[4:1]/2^5[4:1],,,{2},7-2[8:1],4-1[8:1],27,{4}8,1,
{1}2>6[2:1],7>3[2:1],{8}18,,27,27,,1,8,56,,27,27,18,1-4[8:1]/8-5[8:1],,,,
36,,24,24,,57,,3b/4b,,5b/6b,,18,1b/8b,,,,
2,5,3,4,2,5,3,,6,1,7,8,6,1,7,,3,6,4,5,3,6,4,,{2}1-4[8:1]/8-5[8:1],36,
{8}7,4,6,5,7,4,6,,3,8,2,1,3,8,2,,6,3,5,4,6,3,5,,{4}4-1[8:1]/5-8[8:1],,27,1b/8b,
{1},,,,
E
MASTER
(194)
{8}18,,56,34,,27,,45,,17,,2-6[8:1]/8-4[8:1],28,,,,
{4}5,5,12,12,4,4,{8}7,8,7,8,{4}5,5,12,12,4,4,{8}7,8,7,8,
{4}1pp1[4:1]/6,16,5,5,3/8qq8[4:1],38,4,4,
{8}1,1b,7,7,3,3,{16}5<4[2:1],4,5,4,{4}5,,,27,
{8}3,3,5,5,78,78,78,{16}6,5,{8}6,6,4,4,12,12,12,{16}3,4,
{8}3,3,5,5,78,78,78,{16}6,5,{8}6,26,37,48,1^6[16:1]/5^2[16:1],,1b/5b,,
{8}7,7,1,1,34,34,34,{16}2,1,{8}2,2,8,8,56,56,56,{16}7,8,
{8}7,7,1,1,34,34,34,{16}2,1,{8}2,26,37,48,15,,,,
{16}1,2,3,4,5,6,7,8,{4}1-5[8:1],1b,
{8}2h[2:1]/7,,1,8,7h[2:1],,8,1,2,,4-2[8:1]/5-7[8:1],36,45,,,,
2/8h[2:1],,7,7,1h[2:1],,2,2,{4}8V62[4:1],8-4[8:1],8,36,
{16}1-5[8:1],,,8,1,,7,,8-4[8:1],,,1,8,,3,,2-5[8:1],,,8,2,,6,,7-4[8:1],,,1,7,,2,,
3-8[8:1],,,7,3,,5,,6^1[8:1],,,2,6,,{8}4,37,37,26,26,1-4[8:1]/5-8[8:1],,15,,
{16}37,,,2,1,,38,,6,,,7,8,,{8}16,8,1,2,3,{2}4h[4:1]/5-1[8:1],
{16}37,,,6,5,,47,,2,,,3,4,,{8}25,4,5,6,7,{2}1-5[8:1]/8h[4:1],
{16}2h[16:3],,,1,{8}2-5[8:1],8,2,,7,1,{16}7h[16:3],,,8,{8}7-4[8:1],1,7,,2,7,
{16}1h[16:3],,,8,{8}1s5[4:1],7,1,,6,,36,36,27,27,{16}1,8,1,8,1,,,,
{8}3q8[8:1]/5p8[8:1],,35,,,6,7,8,{4}1p4[8:1]*q6[8:1],1,2b/7b,2b/7b,
3q8[8:1]/5p8[8:1],35,{8},6,7,8,{4}46,1b/8b,35,1b/8b,
4q1[8:1]/6p1[8:1],46,{8},3,2,1,{4}8p3[8:1]*q5[8:1],8,2b/7b,2b/7b,
{8}45,3,2,1,78,6,5,4,3pp6[2:1],3,{4}3,,,
{8}8-4[8:1],8,2-5[8:1],2,7-4[8:1],7,1-5[8:1],1,8,8,,18,,3h[8:1],4h[8:1],5h[8:1],
6-1[8:1],6,3-8[8:1],3,7-4[8:1],7,2-5[8:1],2,8,8,,1pp2[8:1]/8qq7[8:1],18,,,,
45,,68,1-5[8:1]/7,,1/8-4[8:1],,28,,3,2,1,6-4[16:1]/8-4[16:1],,68,,
25,{16}7,4,7,,1,6,1,,8,3,{8}8,1-5[8:1],8-4[8:1],1b-6[8:1],8b^3[4:1],1b,8b,,,,
4-8[16:3],4,6-1[16:3],6,3-8[16:3],3,5-1[16:3],5,4,4,,45,,27,,45,
6,7,8-2[4:1],1,{4}2-6[4:1],6-4[4:1],4,,36,27,
1^4[4:1]/8,4^7[4:1],7^2[4:1],2^5[4:1],5<1[4:1],1>5[4:1],5,,
{8}78,,45,36,,13,,68,,27,36,4^1[8:1]/5^8[8:1],{2}45,
{8}3,4,5,6h[4:1],,8,,3h[4:1],,1,,45,36,27,18,,6,5,4,3h[4:1],,1,,6h[4:1],,8,1,2,{2}3-8[8:1]/7-4[8:1],
{4}1-3[16:1],5-7[16:1],4-2[16:1],8-6[16:1],3-5[16:1],7-1[16:1],2-6[16:1],8,
{8}4h[4:1]/8h[4:1],,,{24}48,37,26,{8}1b/5b,,,,1h[4:1]/5h[4:1],,,{24}15,26,37,{2}4b/8b,
{6}13,24,35,46,57,68,18,{24}18,27,36,{6}45,{1}2b/7b,{24},{16}36,,1,8,1,8,1,8,
{8}1-5[8:1],1,7-4[8:1],7,2-5[8:1],2,8-4[8:1],8,1,1,,18,,6h[8:1],5h[8:1],4h[8:1],
3-8[8:1],3,6-1[8:1],6,2-5[8:1],2,7-4[8:1],7,1,1,,1pp2[8:1]/8qq7[8:1],18,,,,
45,,13,2/8-4[8:1],,1-5[8:1]/8,,17,,6,7,8,1-5[16:1]/3-5[16:1],,13,,
47,{16}2,5,2,,8,3,8,,1,6,{8}1,8-4[8:1],1-5[8:1],8b-3[8:1],1b^6[4:1],8b,1b,,,,
5-1[8:1],5,3-8[8:1],3,6-1[8:1],6,4-8[8:1],4,5,5,,45,,27,,45,
6,7,8-2[4:1],1,{4}2-6[4:1],6-4[4:1],4,,36,27,
1^4[4:1]/8,4^7[4:1],7^2[4:1],2^5[4:1],5<1[4:1],1>5[4:1],5,,
{8}78,,56,34,,1-6[8:1]/2-5[8:1],,12,,38,15,27,2b/7b,{16}8,1,
{8}8,8,18,,56,34,,7-4[8:1]/8-3[8:1],,78,,26,4qq5[8:3]/8qq1[8:3],,4b/8b,,,,27,
{16}2,1,2,,8,3,8,,4,7,4,,5,6,5,,3,4,3,,5,2,5,,1,6,1,,7,8,
7,,2,1,2,,8,3,8,,4,7,4,,6,5,{8}6,46,37,28,1w5[16:1],,1b,,
{16}36,,6,5,6,,4,7,4,,8,3,8,,2,1,2,,7,8,7,,1,6,1,,5,2,5,,3,4,
3,,6,5,6,,4,7,4,,8,3,8,,2,1,{8}2,28,37,46,5w1[16:1],,
{1}5b,,,,
E
Re:MASTER
- at first row, 26 should be 28 -- Jitjinsu (2021-06-04 23:31:48)
- おっと、本当ですね。気づかなかった。ありがとうございます!(Oops, that's true. I did not notice. Thank you!) -- 嵐雅 (2021-06-05 23:02:28)
最終更新:2026年10月03日 22:16