BASIC
(190.0){1},,,,
{1}1h[1:1]/8h[1:1],,
{1}1x/8x,
{2}1/8,1/8,
{1}1-4[4:3],,
{1}8-5[4:3],,
{1}4,
{1}3,
{1}2,
{2}1/8,1/8,
{1}8,
{1}7,
{1}6h[1:1],,
{1}6h[1:1],,
{2}5,5,
{1}5,
{2}4,4,
{1}4,
{1}3h[1:1],,
{1}B3/B4,
{1}B5/B6,
{2}4,4,
{1}4,
{2}5,5,
{1}5,
{1}6h[1:1],,
{2}7,7,
{4}1/8,1/8,1b/8b,,
{1}1h[2:1],
{4}1,1,{2}1,{1},,
{1}8h[2:1],
{4}8,8,8,,
{1}Chf[1:1],,
{2}1,1,
{4}2,2,2,,
{2}3,3,
{4}4,5,4,,
{2}5,5,
{4}6,6,6,,
{1}7h[2:1],
{4}8,8,1x/8x,,
{2}8,8,
{4}7,7,7,,
{2}6,6,
{4}5,4,5,,
{2}4,4,
{4}3,3,3,,
{2}2,2,
{4}1,1,1/8,,
{1}1h[2:1]/8h[2:1],
{4}1/8,1/8,1b/8b,,
{2}2,2,
{2}3,3,
{2}4,4,
{4}5,4,5,,
{2}6,6,
{2}7,7,
{2}8,8,
{4}1,1,1/8,,
{1}2-7[4:3],,
{1}6-3[4:3],,
{2}2,2,
{2}1/8,1/8,
{1}1hx[2:1]/8hx[2:1],
{1}1hx[2:1]/8hx[2:1],
{1}Chf[1:1],,,
{1}C1/B1/B2/B7/B8,
{2}1x,1,
{4}8,8,1/8,,
{2}7,7,
{4}6,6,5x/6x,,
{2}4,4,
{4}3,3,3/4,,
{1}2h[2:1],
{4}1/8,1/8,1x/8x,,
{2}8,8,
{4}1,1,1/8,,
{2}2,2,
{4}3,3,3x/4x,,
{2}5,5,
{4}6,6,5/6,,
{1}7h[2:1],
{4}1/8,1/8,1b/8b,,
{2}1/2,1/2,
{4}8,1,8,,
{2}7/8,7/8,
{4}1/8,1/8,1h[4:9]/8h[4:9],{1},,,
E
ADVANCED
(190.0){1}6hx[1:1],
{1}5h[1:1],
{1}4h[1:1],
{1}3,
{4}3,3,3,,
{4}2,2,2,,
{4}1,1,8,8,
{4}1x/8x,1x/8x,2b/7b,,
{1}1^4[2:1],
{1}5^8[2:1],
{1}1-4[2:1],
{4}5,4/5,3x/6x,,
{4}2,2,1/2,,
{4}7,7,7/8,,
{4}2,2,1,1,
{4}8,8,1x/7x,,
{4}7,7,7/8,,
{4}1,1/8,2x/7x,,
{1}3>6[1:1],,
{1}5-8[2:1],
{4}1,1,2b/7b,,
{4}6h[2:1],,5,4,
{4}3h[2:1],,4,5,
{4}6h[2:1],,5,4,
{4}3,3,3x/4x,,
{4}3h[2:1],,4,4,
{4}5h[2:1],,4,4,
{4}3,3,2x/4x,,
{4}6,6,5x/7x,,
{4}3h[2:1],,4,5,
{4}6h[2:1],,5,4,
{4}3h[2:1],,4,5,
{4}6,6,5x/7x,,
{4}6h[2:1],,5,5,
{4}4h[2:1],,5,5,
{4}6,6,7,7,
{4}1/8,1/8,2b/7b,,
{2}E7,B6,
{1}B5,
{2}E3,B3,
{1}B4,
{2}B7,C1,
{2}B3,B2,
{1}Chf[1:1],,
{4}2,1/2,2,1/2,
{4}7,7/8,1x/6x,,
{4}6,5/6,3,3/4,
{4}6,5/6,4x/7x,,
{4}7,7/8,7,7/8,
{4}2,1/2,3x/8x,,
{1}1-4[2:1]/8-5[2:1],
{4}4x/5x,3x/6x,2b/7b,,
{4}7,7/8,7,7/8,
{4}2,1/2,3x/8x,,
{4}3,3/4,6,5/6,
{4}3,3/4,2x/5x,,
{4}2,1/2,2,1/2,
{4}7,7/8,1x/6x,,
{1}1^4[2:1]/8^5[2:1],
{4}4x/5x,3x/6x,2b/7b,,
{4}2,1/2,8,8,
{8}2b/7b,,,,,,,1hx[8:3],
{4},8,7,6,
{8}5x/7x,,,,,,,8hx[8:3],
{4},1,2,3,
{8}2x/4x,,,,,,,1hx[8:3],
{4},8,7,6,
{4}5,4,3,2,
{4}1,1,8,1/8,
{8}2b/7b,,,,,,,6x-1[2:1],
{8},,,,,,,2x-5[2:1],
{8},,,,,,,6x^1[2:1],{1},
{4}2x,2x,2x,,
{2}3h[2:1],4h[2:1],
{2}5h[2:1],6x,
{1}7h[2:1]/8h[2:1],
{1}1h[2:1]/2h[2:1],
{1}1pp4[2:3]/8qq5[2:3],,,
{16},C1/B3/B6,,,,,,,,,,,,,,,
{4}7,7/8,2,1/2,
{4}7,7/8,1x/6x,,
{4}6h[4:1],5,3h[4:1],4,
{4}6h[4:1],5,4x/7x,,
{4}2,1/2,7,7/8,
{4}2,1/2,3x/8x,,
{1}1-4[2:1]/8-5[2:1],
{4}4x/5x,3x/6x,2b/7b,,
{4}2,1/2,7,7/8,
{4}6,5/6,4x/7x,,
{4}3h[4:1],4,6h[4:1],5,
{4}4h[4:1],5,3x/6x,,
{4}7,7/8,2,1/2,
{4}3,3/4,2x/5x,,
{1}4^1[2:1]/5^8[2:1],
{4}1x/8x,2x/7x,3b/6b,,
{4}4,3,2,1,
{4}8,8,1x/7x,,
{4}2,3,4,5,
{4}4x/5x,3x/6x,{2}7b/2b<4[4:5],{1},
{4},,,C1f,
E
EXPERT
(190)
{8}45,,45,,3,3,3,,5,5,5,5,5,,36,,45,,45,,6,6,6,,4,4,4,4,4,,3x/6x,,
45,,45,,3,3,3,,5,5,5,5,{4}5,27,4qq1[1:1]/5pp8[1:1],,,,,,2b/7b,,
{1}1pp2[2:1],7qq6[2:1],2pp3[2:1],{4}18,18,2x/7x,,
{8}8,1,7,1,6,,57,,4,5,3,5,2,,12,,8,1,8,2,{4}8,34,56,7-4[4:1]/8-3[4:1],,,
{8}8,1,7,1,6,,57,,4,5,3,5,2,,12,,{1}8^5[2:1],4^1[2:1],8-4[2:1],{4}1,18,2b/7b,,
6h[2:1],E5,E4,C,2h[2:1],E1,E8,C,6h[2:1],E5,E4,C,E1,E5,B3/B6/C,,
7h[2:1]/8,,8,1,1/2h[2:1],,1,8,17,34,27,{8},17,,56,,27,27,,,,
{4}8h[2:1],E3,E4,C,1h[2:1],E7,E6,C,8h[2:1],E3,E4,C,E1,E5,B3/B6/C,,
1/2h[2:1],,1,8,7h[2:1]/8,,8,1,12,12,78,78,18,45,2b/7b,,
6h[2:3],5,5,5,5,5,5,2x/7x,18,18,{8}78,78,78,,12,12,12,12,12,,,,
{4}3h[2:3],4,4,4,4,4,4,2x/7x,{2}5<4[8:5],,Cf,{8},18,18,18,
{4}27,34,17,56,28,{8}34,34,{4}2x/5x,3x/7x,5/6h[4:1],1,3h[4:1]/4,8,57,24,{8}18,18,2b/7b,,
{4}8-4[8:1],,2-6[8:1],,8,34,2x/6x,,7^4[8:1],,3^8[8:1],,6,57,2x/6x,8b,
27,56,28,34,17,{8}56,56,{4}4x/7xx,2x/6x,3h[4:1]/4,8,5/6h[4:1],1,57,24,{8}18,18,2b/7b,,
{4}1-5[8:1],,7-3[8:1],,1,56,3x/7x,,7-5[8:1]/8-4[8:1],,1-5[8:1]/2-4[8:1],,78,34,3b/7b,,
78,56,34,12,18,45,2hx[8:3]/7hx[8:3],,
{8},3,4,2,4,3,,18,,7,8,7,16,,,45,,6,5,7,5,6,,18,,2,1,2,38,,,45,
,3,4,2,4,,12,,6,5,7,5,6,,78,,2,1,2,1,3,8,3,8,4,5,4,,3x/7x,,,
{1}3x^6[2:1],7x^2[2:1],3p6[2:1],1xw5[8:5],{8},
{2}4-2[4:1],5-7[4:1],3-1[4:1],6-8[4:1],{4}1,1-4[4:1]*-6[4:1],,,8,8-3[4:1]*-5[4:1],,,
{1}1s5[2:1],8q1[2:1],,B2/B3/B6/B7/Ch[8:3],
{4}18,24,17,56,28,{8}34,34,{4}25,37,5/6h[4:1],8,3h[4:1]/4,1,57,24,{8}18,18,2b/7b,,
{4}8p4[8:1],,2q6[8:1],,8,{8}34,34,{4}2x/5x,37,2^5[8:1],,6^1[8:1],,3,24,3x/7x,1b,
27,57,28,34,17,{8}56,56,{4}47,26,3h[4:1]/4,1,5/6h[4:1],8,24,57,{8}18,18,2b/7b,,
{4}1q5[8:1],,7p3[8:1],,1,56,{8}34,34,{4}2x/5x,1-5[8:1]/2-4[8:1],,7-5[8:1]/8-4[8:1],,12,56,2b/6b,,
78,56,34,12,7q4[2:1]/8^3[2:1],,,,12,34,56,78,12,45,2b<4[1:1]/7b,,,,,,,,,
{1}B3/B6/Cf/E3/E7,,,,,,,,,,
E
MASTER
(190)
{8}45,,45,,34,34,34,,56,56,56,56,56,,B6/B7,,45,,45,,56,56,56,,34,34,34,34,34,,
{4}1>8[4:3],Cf,,,,1,2,3,45,B1/B7/B8/Ch[4:3],,,,7b-3[8:1],1b-5[8:1],8b,,
56,56,{8}2,1,2,1,3,,34,,7,8,7,8b,{4}6,56,34,27,1xpp2[8:3]/8xqq7[8:3],,,,
{16}2x/7x,,3,4,{8}3,2,17,3,45,6,47,{16}6,5,{8}6,7,28,3,34,,
45,{16}3,4,{8}2,2,12,8,57,6,4/5-1[8:1],,3^6[8:1],,7,,2b/8b,,
45,{16}6,5,{8}7,7,78,1,24,3,{4}4-8[8:1]/5,6^3[8:1],2,1b/7b,
B3,B1/E2,B6,B8/E8,E4,B2/E3,E5,C,18,{8}7,57,,2,24,,6,5,{4}46,35,36,
3h[1:1],4,5,4,{8}5,5,{4}4,B5,B2,6h[1:1],5,3,4,{8}2,2,{4}2,34,56,
{16}3h[16:3]/4,,,4,{8}3,25,25,,45,,{16}5/6h[16:3],,,5,{8}6,47,47,,18,,
{4}2pp4[8:1],8qq6[8:1],1pp3[8:1],7qq5[8:1],2pp4[8:1],6,3b/8b,,
2h[1:1],4,6,4,{8}5,5,{4}4,E6,E3,7h[1:1],6,8,6,{8}1,1,{4}8,2,38,
{16}1/2h[16:3],,,1,{8}2,38,38,,45,,{16}7h[16:3],,,8,{8}7,16,16,,27,,
{4}5-1[8:1]/6,8,3/4-8[8:1],1,3-8[8:1]/7-4[8:1],37,2b/6b,,
3h[4:1]/5h[4:1],,4h[4:1]/6h[4:1],,35,46,35,1,78,78,{8}12,12,12,,78,78,16,25,25,,,,
{4}3h[4:1]/5h[4:1],,4h[4:1]/6h[4:1],,35,46,45,1/8<3[4:3],Chf[1:1],,,,8b,,{8},1b,1b,1b,
1x/6qq4[8:1],,2,2,2qq1[8:1]/7,,6,6,{4}5/7pp8[8:1],4,3x/5x,
{8}1/2-5[8:1],8,12,,7-4[8:1]/8,1,78,,3,2,25,{16}7,8,{8}7,6,46,1b,1b,,
7-4[16:1],7,3-8[16:1],3,6-1[16:1],6,2-5[16:1],2,7^4[8:1],7,{4}4-8[8:1],1x,2x/7x,
{16}6,5,6,5,7b,,,,3,4,3,4,{8}2b,,7b^4[8:1],1b-5[8:1],7b,1b,8bw4[8:1],,B1/B7/B8/Cf,,
2x/6x,,26,1,2-6[8:1]/4,,6,7,8-4[8:1],,4,3,{4}25,
4^1[4:1],1,8^5[4:1],5,3,{16}38,,2,1,{8}2,3,35,8b,8b,,
4x/5x,{16}7,8,{8}6-1[16:1],6,2-5[16:1],2,8,8,4x/5x,{16}2,1,{8}3-8[16:1],3,7^4[8:1],,1b,,
{16}2,1,2,1,3b,,,,7,8,7,8,{8}6b,,25,1x,47,8x,25,{16}1x,8x,{8}1x,1x,
{4}7-4[8:1]/8-3[8:1],78,1-6[8:1]/2-5[8:1],12,1-5[8:1]/8-4[8:1],1^4[8:1]/8^5[8:1],1b/8b,
{8},2xV48[4:1]/6h[4:1],,,7,7,1x,1x,,3h[4:1]/7xV51[4:1],,,2,2,8x,,
36,3hx[4:1]/6hx[4:1],,,{16}4,5,{8}4,37,3/7^4[8:1],,1-5[8:1],,8,8,,3x/5x,,18,2h[4:1]/7h[4:1],,,
{16}2x/7x,6,5,4,1x,2,3,4,8x,7,6,5,2x,3,4,5,1x,8,7,6,{8}2x/5x,,38,3b/8b,,
{16}5h[8:1]/7h[8:1],,,5h[8:1]/6h[8:1],,,3h[8:1]/4h[8:1],,,2h[8:1]/4h[8:1],,,18,,
1x/8x,2,3,4,7x,6,5,4,{8}1b,,24,
2-6[8:1]/4-6[8:1],,,,,7,78,,5-3[8:1]/7-3[8:1],,,,,2,12,,
3h[4:1]/6,,6h[8:1],5h[8:1],4h[8:1],3^6[8:1],,7,7-3[8:1],,2,{4}2<5[4:1],5b,,
8-6[16:1],4-2[16:1],7-5[16:1],3-1[16:1],6-4[16:1],2-8[16:1],7-3[16:1],1,
{8}1h[4:1]/5h[4:1],,,{24}15,26,37,{8}4b/8b,,,,4h[4:1]/8h[4:1],,,{24}48,37,26,{2}1b/5b,
{6}68,57,46,35,24,13,18,{24}18,27,36,{6}45,{24},{2}2b/7b,
Ch[16:17],,{16},B1/B2/B8,,,{4},,,
{16}2b^5[8:1]/7b,,,1,2,,6,,7^4[8:1],,,8,7,,3,,2^5[8:1],,,1,{8}2,6,7b/8b,,
5/6-1[8:1],7,56,,3-8[8:1]/4,2,34,,7,6,46,{16}2,1,{8}2,3,35,8b,8b,,
7-4[16:1],7,3-8[16:1],3,6-1[16:1],6,2-5[16:1],2,7^4[8:1],7,{4}5q1[8:1],1x,2x/7x,
{16}6,5,6,5,8b,,,,3,4,3,4,{8}1b,,7b^4[8:1],1b-5[8:1],7b,1b,8bw4[8:1],,B1/B7/B8/Cf,,
2x/6x,,26,1,2-6[8:1]/4,,6,7,8-4[8:1],,4,3,{4}25,
8^5[4:1],5,4^1[4:1],1,8,{16}35,,7,8,{8}7,6,46,8b,8b,,
4x/5x,{16}2,1,{8}3^8[8:1],3,7^4[8:1],7,1,1,4x/5x,{16}7,8,{8}6^1[8:1],6,2-6[8:1],,8b,,
{16}7,8,7,8,5b,,,,2,1,2,1,{8}4b,,35,8x,46,1x,35,{16}8x,1x,{8}8x,7x,
{4}5x-1[8:1]/7x-5[8:1],5x/7x,2x-4[8:1]/4x-8[8:1],2x/4x,5/7^2[8:1],2^7[8:1],7,4x/6x,
1pp2[2:1]*qq8[2:1],,,,B2/B3/B7/B8,B5/E5/E6,{0.5}2h[4:7]/6h[2:3],{4}1q5[8:1]/7-2[8:1],7b,
{1}B2/B3/B4/B5/B6/B7/Cf/E2/E8,,,,,,,,,,
E
Re:MASTER
最終更新:2026年03月26日 21:39