アットウィキロゴ

Flashkick

アーティスト Yooh

BPM BASIC ADVANCED EXPERT MASTER Re:MASTER
175 5 7+ 11 13 -

EXPERT MASTER Re:MASTER
譜面制作者 サファ太 華火職人 -

BASIC


ADVANCED


EXPERT


MASTER

(175)
{1}1>8[2:7]/8,1h[4:3],2h[4:3],3h[4:3],
1/8<1[2:7],8h[4:3],7h[4:3],6h[4:3],
{8}3h[8:7],,5,5,,4,,6h[8:9],,4,,5,5,,1,,2h[8:7],,5,5,,4,,7h[8:9],,4,4,5,5,,1,,
2h[8:7],,8,8,,1,,7h[8:9],,1,,8,8,,4,,3h[8:7],,8,8,,1,,6h[8:7],,1,1,8,8,,3,,
{16}24,,,35,,,46,,,57,,,1b/8b,,,,57,,,46,,,35,,,24,,,1b/8b,,,,
25,,,36,,,47,,,58,,,1b/2b,,,,47,,,36,,,25,,,14,,,7b/8b,,,,
{4}5/6-1[8:1],,3-8[8:1]/4,,B5/B6/E6,B1/B2/E2,{16}8x,7x,6x,5x,1x,2x,3x,4x,
{4}Ch[2:3],,,,,,,B2/B3/B6/B7/E3/E7,
4-1[16:1]/8-5[16:1],,{8}6,7-4[8:1],18,7,3,2-5[8:1],18,2,6,7-4[8:1],1s5[4:1]/8,7,
{2},{8}26,15,{4}4V63[4:1]/8V27[4:1],,,2-5[8:1]/6-1[8:1],26,
3b/7b,56,{8}3,2-5[8:1],18,2,6,7-4[8:1],18,7,3,2-5[8:1],18,2,
{16}7h[16:3],,,8h[16:3],,,1h[16:3],,,2h[16:3],,,5,,5,,6h[16:3],,,8h[16:3],,,1h[16:3],,,3h[16:3],,,6,,6,,
{2}3-6[16:1]/7-2[16:1],{8}7,8-5[8:1],12,8,2,1-4[8:1],78,1,7,8-5[8:1],12,8,
{16}4h[16:3],,,6h[16:3],,,2h[8:1],,{4}1b,3V52[4:1]/7V58[4:1],,,3-8[8:1]/7-4[8:1],37,
2b/6b,15,{8}7,8-5[8:1],12,8,2,1-4[8:1],7>6[8:3]/8,1,{2},
{16}2h[16:3],,,1h[16:3],,,8h[16:3],,,7h[16:3],,,4,,4,,3h[16:3],,,1h[16:3],,,8h[16:3],,,6h[16:3],,,3,,3,,
{4}4-1[16:1]/5-8[16:1],,27,{8}B7/E7/E8,B1/B2/E2,B5/B6/E6,B3/E3/E4,B7/B8/E8,B4/E5/C,8p4[8:1]*q4[8:1],,,,
6,6,78,,45,,{16}E8,B2,B6,E4,B8,E3,E7,B4,B7,E2,B3,E6,{4}Ch[4:1],1b,
2b/7b,6h[4:1],5,{8}B2/E2/E3,B7/B8/E8,B3/B4/E4,B6/E6/E7,B1/B2/E2,B5/E5/C,1p5[8:1]*q5[8:1],,,,
{16}6h[16:3],,,8h[16:3],,,1h[16:3],,,3h[16:3],,,4,,4,,5h[16:3],,,8h[16:3],,,1h[16:3],,,4h[16:3],,,5,,5,,
{0.25} 2b/7b,{4}B5,B6,B7,B8,B1,B2,B3,B4,E5,E4/E6,E3/E7,E2/E8,Chf[4:3],,,,
{2}2-4[16:1]/8h[4:3],5-1[16:1],1h[4:3]/7-5[16:1],4-8[16:1],7h[4:3]/8-6[16:1],5-1[16:1],1-3[16:1]/2h[4:3],4-8[16:1],
5-8[16:1]/6-8[16:1],3-1[16:1]/4-1[16:1],5-1[16:1]/6-1[16:1],3-8[16:1]/4-8[16:1],
{4}57,24,{16}5,4,5,4,6,3,6,,{4}2h[4:1]/7h[4:1],,4b-8[8:1]/5b-1[8:1],4b/5b,
2b-5[8:1]/7b,{8}1-6[8:1],1,2-5[8:1],2,1-6[8:1],1,2,2,13,13,48,48,26,,
3-8[8:1]/4,25,34,,5/6-1[8:1],47,56,,{16}3,4,3,4,{8}4p5[8:1],36,8-4[8:1],,8b,,
2b/7b-4[8:1],,8-3[8:1],8,7-4[8:1],7,8-3[8:1],8,7,7,68,68,15,15,36,,
12,{16}6,6,,3,3,,8,8,,,34,,56,,78,,3,3,,6,6,,2,2,,,{8}8w4[8:1],17,,,
2-5[8:1],2,8^5[8:1],8,1-5[8:1],1,7,7,68,68,15,15,37,,
5/6-1[8:1],78,56,,3-8[8:1]/4,12,34,,{16}5,4,5,4,{8}5q4[8:1],36,1-5[8:1],,1b,,
6b/8b-4[8:1],,7^4[8:1],7,1-4[8:1],1,8,8,12,,56,56,{16}1,8,1,8,2,7,2,,
45,,6,6,,3,3,,8,8,,,34,,56,,78,,2,2,,6,6,,45,45,,,{4}2b/7b,
2h[4:1]/4,B3/E3/E4,5/7h[4:1],B6/E6/E7,2h[4:1]/4,B2/E2/E3,5/7h[4:1],B7/E7/E8,
{8}4-1[8:1]/5,3,24,,4/5-8[8:1],6,57,,4-7[8:1]/5,3,24,,4/5-2[8:1],6,57,,
{4}1h[4:1]/4,B3/E3/E4,5/8h[4:1],B6/E6/E7,1h[4:1]/4,B2/E2/E3,5/8h[4:1],B7/E7/E8,
{8}4/5-1[8:1],6,57,,4-8[8:1]/5,3,24,,{2}2h[8:3]/6h[8:3],{32}2b,3,4,5,6,7,8,1,{4}2b/6b,
{8}18,,34,56,27,{16}6,5,7,,3,4,{8}2,18,5/6-1[8:1],47,5-2[8:1]/6,,56,,
18,,34,56,27,{16}3,4,2,,6,5,{8}7,34,25,16, 7-4[8:1]/8-3[8:1],16,78,,
{16}56,,,34,,,57,,,24,,,1b/8b,,1b/8b,,57,,,24,,,67,,,23,,,1b/8b,,1b/8b,,
2x,3x,4x,5x,1x,8x,7x,6x,{32}1,2,3,4,5,6,7,8,1,2,3,4,5,6,7,8,
{2}1v4[8:1]/5v8[8:1],Chf[4:1],2b/7b,
{1},,,,
E

Re:MASTER


名前:
コメント:

タグ:

+ タグ編集
  • タグ:
最終更新:2026年03月29日 09:26