BASIC
ADVANCED
EXPERT
MASTER
(180)
{16}1,8,1,8,2,7,2,7,{4}3,4x/6x,
3^1[8:1]/5,8,{8}5,4,{4}3s7[8:3],8h[8:5],,{8},1,1,,
{4}4/6^8[8:1],1,{8}4,5,{4}6z2[8:3],1h[4:3],,,8-4[8:1],
{4}3,2-6[8:1],6,48,{8}3,4,2,7,5,6,1h[4:1],,6,5,7,2,4,3,6,6,1>7[4:1],,,8x,{4}8x,,
3,3,3,3,{16}6,5,6,,3,4,3,,6,5,6,,47,,,,
{8}2,5^8[4:1],2,5x,2,,2,,2,8-5[4:1],2,8x,2,,24,,2,4-1[4:1],2,4x,{4}2,28,2/E1,2/C,2/E5,28,
{8}7,4^1[4:1],7,4x,7,,7,,7,1-4[4:1],7,1x,7,,57,,7,5-8[4:1],7,5x,7,,7,,18,18,{4}2-5[8:1]/7-4[8:1],,27,
1b/8b,5/7h[4:1],{8}3,2h[4:1]/4,,6,5/7h[4:1],,3,2h[4:1]/4,,4,15,,
46,,2h[4:1]/4,,6,5/7h[4:1],,3,2h[4:1]/4,,6,5/7h[4:1],,5,48,,
3,5q1[4:1],3,5x,3,,3,,3,1^6[4:1],3,1x,3,,37,,3,7-2[4:1],3,7x,{4}3,3,3/Cf,3,3,37,
{8}6,4p8[4:1],6,4x,6,,6,,6,8^3[4:1],6,8x,6,,26,,6,3-7[4:1],6,3x,{4}6,6,57,4V28[16:3]/8V64[16:3],,,
2b/8b,5/7h[4:1],{8}3,2h[4:1]/4,,6,5/7h[4:1],,3,2h[4:1]/4,,5,16,,
57,,2h[4:1]/4,,6,5/7h[4:1],,3,2h[4:1]/4,,6,5/7h[4:1],,4,38,,
2pp5[2:1],,1x,1x^6[8:1],{2},{8}7qq4[2:1],,8x,8x^3[8:1],{2},
{8}1>5[8:3],,8,8h[8:3],{2},{8}1>7[2:1],,8,8h[8:3],{2},
{8}3qq8[2:1],,4x,4x^7[8:1],{2},{8}2pp5[2:1],,1x,1x^6[8:1],{2},{8}8,8,1,26,,4,{4}4>5[2:1],Cf,,,3b/7b,
1v6[8:1]/2^5[8:1],1x/2x,7^4[8:1]/8v3[8:1],7x/8x,{8}2,2,34,5,46,,18,,
{4}35,2^7[4:1]/3p6[4:1],,,{8}8,7,56,4,35,,1>6[4:1]/7,,
8h[4:1],,,8,{4}1,2-6[8:1],2x/5-8[8:1],3/5x,1b/4b,3-8[8:1],4,6-1[8:1],5,3>6[8:3],5h[2:1],,,36,
7^4[8:1]/8v3[8:1],7x/8x,1v6[8:1]/2^5[8:1],1x/2x,{8}7,7,56,4,35,,18,,
{4}45,8z4[16:3],4,3,{8}2,2,34,5,46,,2/7<3[4:1],,
1h[4:1],,,1,{4}8,37,1w5[8:1],1x,3x/7x,6-1[8:1],5,3-8[8:1],4,6<3[8:3],4,,B3/B6/Cf,,
8^5[8:1],3,4,5s1[2:1],2h[2:1],,{8},2,3,5,{4}4^1[8:1]/6,8,{8}6,5,{4}4z8[2:1],7h[4:3],,,1-5[8:1],
6,7-3[8:1],2,15,{8}6,5,7,2,4,3,8h[4:1],,3,4,2,7,5,6,27,,{16}1,8,1,8,1,8,1,8,{4}1w5[8:1],1x,
8b,16,{8}2,1/3h[4:1],,7,6h[4:1]/8,,2,1/3h[4:1],,1,48,,
17,,3h[4:1]/8,,7,6h[4:1]/8,,2,1/3h[4:1],,7,6h[4:1]/8,,8,15,,
{4}4>7[2:1]/6,5,5,5,5/7>4[2:1],5,5,5,5<2[2:1],4,4,4,{1}2<5[2:1]/5<2[2:1],
{4}4v1[16:3]/6v1[16:3],,,8-4[8:1],1-7[8:1],6-2[8:1],,2xqq5[4:3]/5x<5[4:3],{1},B2/B7/Chf[4:1],
{2}B3/B4/B5/B6/Cf,{8},1x/8x,1x/8x,,
{4}3^8[8:1]/4v7[8:1],3x/4x,5v2[8:1]/6^1[8:1],5x/6x,{8}3,4,56,7,18,,27,,
{4}46,6q3[4:1]/7^2[4:1],,,{8}1,2,35,6,17,,2/8<3[4:1],,
1h[4:1],,,1,{4}8,7-3[8:1],4-1[8:1]/7x,4x/6,5b/8b,6-1[8:1],5,3-8[8:1],4,6<3[8:3],4h[2:1],,,27,
5v2[8:1]/6^1[8:1],5x/6x,3^8[8:1]/4v7[8:1],3x/4x,{8}6,5,34,2,18,,37,,
{4}46,1s5[16:3],5,6,{8}8,7,46,3,17,,1>6[4:1]/7,,
8h[4:1],,,8,{4}1,26,8w4[8:1],8x,2x/6x,7-4[8:1],8,2-5[8:1],1,6<3[8:3],4,,B3/B6/Cf,1h[2:1],
{24}E2,E3,E4,,,,8h[2:1],,,,,,E8,E7,E6,,,,{4}1,B2/B3/B6/B7/Cf,,,1b/8b,
3-8[8:1]/5,6-1[8:1],2-5[8:1],7<8[8:3],1,,{8},43,25,,
{4}4/6-1[8:1],3-8[8:1],7-4[8:1],2>1[8:3],8,,{8},56,47,,
{2}7^4[8:1]/8^3[8:1],1^6[8:1]/2^5[8:1],{8}6,6,5,8,3,3,24,,
6-3[8:1],6,2-7[8:1],2,5-1[8:1],5,2>6[16:3],2,8h[8:3],,,2,{16}1,8,1,8,2,7,2qq5[1:3],7,
{1}2h[8:27],,,,,,,,
E
Re:MASTER
最終更新:2026年03月29日 14:59