| アーティスト |
東方LostWord feat.いとうかなこ |
BASIC
ADVANCED
EXPERT
MASTER
(184)
{16}34,,,56,{8},3h[8:3]/4,,2,2,,{16}57,,,24,{8},5/7h[8:3],,8,8,,
{16}15,,,48,{8},1h[8:3]/5,,2,2,,{16}26,,,37,,,15,,{2}4h[8:3]/8h[8:3],
{16}2,,8,,2,1,2,,7,,1,,7,8,7,,2,,8,,2,1,{4}2<4[16:3],E6,
{8},6,8,{16}6,5,6,,3,,1,,3,4,{8}3,37,26,15,4/8>5[16:3],,B6,,,
7,1,{16}7,8,7,,2,,8,,2,1,2,,7,,1,,7,8,{4}7>5[16:3],E4,
{8},3,1,{16}3,4,3,,6,,8,,6,5,{8}6,26,37,48,1<4[16:3]/5,,B3,,,
12,,,57,,,25,,,48,,,1^4[8:1]/5^8[8:1],,,,
3h[4:1]/7h[4:1],,,2h[4:1]/6h[4:1],,,4h[4:1]/8h[4:1],,,1h[4:1]/5h[4:1],,,E4/E8/C,,,,
56,,56,,6,5,6,,46,,46,,6,4,{4}6,5h[4:1]/6,6,4h[4:1]/6,6,56,34,{8}46,8,8,,
34,,34,,3,4,3,,35,,35,,3,5,{4}3,3/4h[4:1],3,3/5h[4:1],3,34,56,{8}35,1x/8x,,4,
5,3qq5[8:3],3,8,,7,7h[4:1],,5,6q3[16:5],6,5x,,5h[4:1],,6,
5-2[8:1]/6h[4:1],,,7,5-1[8:1]/7h[4:1],,,8,28,1,8,27,,1x,1x,7,
1,8-4[8:1],2,5,,1,1h[4:1],,4,3>6[4:1],3,4,,4h[4:1],,3,
3h[4:1]/4-7[8:1],,,2,2h[4:1]/4-8[8:1],,,1,17,8,1,27,,8b,8b,1-5[8:1],
5,1,,8-4[8:1],4,8,,2-6[8:1],6-2[8:1],2,,7-3[8:1],3-7[8:1],7,,2,
3,4,5,6,E8,E7,E6,E5,{4}3-8[8:1]/7-4[8:1],,26,{8},1-5[8:1],
8,17,,8-4[8:1],1,28,,3-7[8:1],4,35,,6-2[8:1],5,46,,3,5,3,1,3,6,3,8,3,5,4,7,4,5,2,5h[4:1],,
8x^3[8:1],,7,6x^1[8:1],,5,4x^7[8:1],,3,2x^5[8:1],,1,8x,,{16}4,5,4,,
{8}1b-5[8:1],,2,3b-7[8:1],,4,5b-1[8:1],,6,7b-3[8:1],,8,{2}1bw5[8:1],
{16}28,,7,8,{8}6,4,35,2,{4}1^4[8:1]/7,1^6[8:1]/8,1w5[8:1]/2,1,37,
{16}35,,6,5,{8}7,3,25,7,{4}4/8-4[8:1],2-6[8:1]/8b,2b/4-8[8:1],1/4b,27,
{16}17,,2,1,{8}3,8,46,1,{4}3/5<1[4:1],1>5[4:1],5,1,{8}4q7[8:3],5,
4,,,5h[4:1],,6,6pp1[8:3],,4,,,2h[4:1],,8b,8b,,
17,{16}2,1,{8}3,5,46,7,{4}2/8^5[8:1],4/8^3[8:1],4w8[8:1]/8,4,26,
{16}46,,3,4,{8}2,6,47,2,{4}1-7[8:1]/5,1b/6-2[8:1],3-5[8:1]/6b,3b/8,17,
{16}28,,7,8,{8}6,1,35,8,{4}4>8[4:1]/6,8<4[4:1],4,8,{8}3>6[4:1],5,
3,,5q7[4:1],5,,2,2>7[4:1],,2,,8p6[4:1],8,,4,4,,
{4}3h[8:1]/7h[8:1],56,2h[8:1]/6h[8:1],34,1xv4[8:1]/5xv8[8:1],1x/5x,3b/7b,45,
4h[8:1]/8h[8:1],56,1h[8:1]/5h[8:1],34,3x-8[8:1]/7x-4[8:1],3x/7x,2b/6b,,
{16}34,,,56,,,3h[8:3]/4-6[8:1],,{2},{16}57,,,24,,,5-2[8:1]/7h[8:3],,{2},
{16}13,,,68,,,1h[8:3]/3-7[8:1],,{2},{16}58,,,14,,,5-1[8:1]/8h[8:3],,{2},
{16}56,,,34,,,{8}5/6-3[8:1],,1,1,,{16}24,,,57,,,{8}2-6[8:1]/4,,8,8,,
{16}68,,,13,,,{8}6/8-4[8:1],,1,{4}1,5-1[8:1]/6,8,3/4-8[8:1],1,
1h[1:2],,,,E8,E7,E6,,8h[1:2],,,,E2,E3,E4,,1h[1:2],,,,E1,C,E5,,Ch[1:1],,,,B2/B7,,{16}E2,E8,E4,E6,C,,,,
28,,7,8,{8}6,4,35,2,{4}1^4[8:1]/6,1^6[8:1]/5,1w5[8:1]/5,1,37,
{16}35,,6,5,{8}7,3,25,7,1-5[8:1]/8-6[8:1],,{24}1b-3[8:1]/8b-4[8:1],Cf,,,,,1b-5[8:1]/8b-6[8:1],Cf,,,,,1b/8b,Cf,,,,,2x/7x,,,,,,
{16}17,,2,1,{8}3,8,46,1,{4}3/5p4[4:1],4>5[4:1],1,4,{8}4q7[8:3],5,
4,,,5h[4:1],,6,6pp1[8:3],,4,,,2h[4:1],,8b,8b-3[8:1],,
{4}4-7[8:1]/8,4/6-1[8:1],2-5[8:1]/6,2/8^5[8:1],4/8^3[8:1],4w8[8:1]/8,4,3-8[8:1]/5,
3/6-1[8:1],2-5[8:1]/6,2/8-3[8:1],1-5[8:1]/8-6[8:1],{24}1b-3[8:1]/8b-4[8:1],Cf,,,,,1b-5[8:1]/8b-6[8:1],Cf,,,,,1b/8b,Cf,,,,,2/8-5[8:1],,,,,,
{4}3-6[8:1]/8,3/7-2[8:1],4-1[8:1]/7,4/8w4[8:1],8^2[8:1]*^6[8:1],8w4[8:1],8,{8}7<2[4:1],8,
7,,1q4[4:1],1,,6,6<3[4:1],,6,,4p1[4:1],4,,8,8,,
{16}2b/6b,,3,4,3,,8,,3b/7b,,6,5,6,,1,,{4}1b^4[8:1]/5b^8[8:1],1bv6[8:1]/5bv2[8:1],{24}1b/5b,Cf,,,,,{4}18,
{16}1b/6b,,7,8,7,,16,,3b/8b,,2,1,2,,38,,{4}2b-5[8:1]/6b-1[8:1],2b/6b,3b/7b,,
{16}35,,46,,7,8,7,,46,,35,,2,1,2,,35,,46,,7,8,{4}7<2[16:3],B2,
{16},,17,,28,,3,4,3,,28,,17,,6,5,{8}6,12,38,47,5/6<3[16:3],,B3,,,
46,35,{16}2,1,2,,35,,46,,7,8,7,,46,,35,,2,1,{4}2>7[16:3],B7,
{16},,28,,17,,6,5,6,,17,,28,,3,4,3,,27,,27,36,{8}45,18,,15,4b/8b,2b/6b,
{1},,
E
Re:MASTER
最終更新:2026年03月29日 15:26