アットウィキロゴ

MilK

アーティスト モリモリあつし

BPM EASY BASIC ADVANCED EXPERT MASTER Re:MASTER
150 1 5 8 12+ 13+ -

EXPERT MASTER Re:MASTER
譜面制作者 rioN 小鳥遊さん -

EASY


BASIC


ADVANCED


EXPERT

(150)
{4}6h[2:1],5,5h[2:1],4,4<8[4:1],,{8},1,2,
{4}3h[4:1],4h[4:1],5h[4:1],6h[4:1],5h[4:1],4h[4:1],3h[4:1],2h[4:1],{8}3,
{4}3h[2:1],4,4h[2:1],5,5>1[4:1],,{8},8,7,
{4}6h[4:1],5h[4:1],4h[4:1],3h[4:1],4h[4:1],5w1[4:1],,,{8},
{4}3h[4:1],4,6h[4:1],5,2h[4:1],3,7h[4:1],6,
2h[4:1],{8}3,4,5,6,7h[4:1]/8,,6,5,4,3,2,1,7h[4:1]/8,,
{16}6h[16:3],,,5,5h[16:3],,,4,4h[16:3],,,3,{8}3,4,5,6,7,8,1,2,3,4,
{16}5,4,5,4,5,4,5,4,5,4,5,4,{8}5,,5-1[16:1],3,3,4-8[16:1],6,6,5b,,
{4}7,4-2[8:1]/5-1[8:1],,{8}8,7,{4}6,5-1[8:1]/6-1[8:1],,{8}2,3h[4:1],
,4,{2}4-8[8:1]/6-1[8:1],{8}2,3,4h[4:1],,5,5s1[4:1],{2},
{4}2,2^4[8:1]/8v5[8:1],,{8}6,4,{4}1,7v4[8:1]/8-5[8:1],,{8}3,4,
5,6,7,8,{16}2b/7b,,,5b/7b,,,2b/4b,,{2},{16}6,6,,45,,3,3,,
{4}4b/5b,3V14[4:1]/7q4[4:1],,,6,3-8[8:1]/5v8[8:1],,{8}7,6h[4:1],
,5,{4}4q1[8:1]/5^8[8:1],,{8}3h[8:1],4h[8:1],5h[4:1],,4,4z8[4:1],{2},
{4}3,1-5[8:1]/2v4[8:1],,{8}3,5,3,1,{2}7qq5[8:1]/8q4[8:1],{8}6,4,
8,2,8,6,{16}1b/8b,,,2b/4b,,,{8}5b/7b,,,,,5,6,4,3,
{4}6h[4:1],5,3h[4:1],4,7h[4:1],6,2h[4:1],3,
7h[4:1],{8}6,5,4,3,1/2h[4:1],,3,4,5,6,7,8,1/2h[4:1],,
{16}3h[16:3],,,4,4h[16:3],,,5,5h[16:3],,,6,{8}6,5,4,3,2,1,8,7,6,5,
{16}4,5,4,5,4,5,4,5,4,5,4,5,{8}4,,4-8[16:1],6,6,5-1[16:1],3,3,4b,,
{16}3h[8:1]/4h[8:1],,,25,,,5h[8:1]/6h[8:1],,,47,,,18,,18,,
1h[8:1]/2h[8:1],,,18,,,7h[8:1]/8h[8:1],,,18,,,27,,,,
3h[8:1]/4h[8:1],,,12,,,5h[8:1]/6h[8:1],,,78,,,{8}18,18,3,18,6,18,45,18,3b/6b,,
{16}2h[8:1]/3h[8:1],,,14,,,6h[8:1]/7h[8:1],,,58,,,18,,18,,
3h[8:1]/4h[8:1],,,23,,,5h[8:1]/6h[8:1],,,67,,,18,,,,
2h[8:1]/3h[8:1],,,4h[8:1]/5h[8:1],,,6h[8:1]/7h[8:1],,,4h[8:1]/5h[8:1],,,
{8}36,36,7-4[16:1],1,1,2-5[16:1],8,8,7,,2b/7b,,
{16}1h[8:1]/2h[8:1],,,7h[8:1]/8h[8:1],,,56,,45,,34,,
2h[8:1]/3h[8:1],,,1h[8:1]/8h[8:1],,,6h[8:1]/7h[8:1],,,1h[8:1]/8h[8:1],,,36,,,,
5h[8:1]/6h[8:1],,,23,,,3h[8:1]/4h[8:1],,,67,,,{8}18,18,27,36,45,36,27,18,2b/7b,,
{16}5h[8:1]/6h[8:1],,,4h[8:1]/7h[8:1],,,3h[8:1]/4h[8:1],,,2h[8:1]/5h[8:1],,,
5h[8:1]/6h[8:1],,,3h[8:1]/8h[8:1],,,3h[8:1]/4h[8:1],,,1h[8:1]/6h[8:1],,,
5h[8:1]/6h[8:1],,,2h[8:1]/8h[8:1],,,3h[8:1]/4h[8:1],,,1h[8:1]/7h[8:1],,,
5h[8:1]/7h[8:1],,,2h[8:1]/8h[8:1],,,2h[8:1]/4h[8:1],,,1h[8:1]/7h[8:1],,,57,,,28,,,24,,,17,,,4b/5b,,,,
{4}2,3q8[8:1]/6p1[8:1],,{8}2,8,{4}7,4-1[8:1]/6p1[8:1],,{8}7,6h[4:1],
,5,{4}4q1[8:1]/5V71[8:1],,{8}2,3,5h[4:1],,4,4z8[8:1],{2},
{4}7,7v5[8:1]/8V25[8:1],,{8}6,4,{4}8,1V74[8:1]/2^4[8:1],,{8}6,5,
4,3,2,1,{16}2b/7b,,,2b/4b,,,5b/7b,,{2},{16}3,3,,45,,6,6,,
{4}4b/5b,5q4[4:1]/7V14[4:1],,,6,2V48[8:1]/5v8[8:1],,{8}1,3h[4:1],
,4,{4}4-1[8:1]/5z1[8:1],,{8}7h[8:1],5h[8:1],4h[4:1],,5,5s1[4:1],{2},
{4}6,7V14[8:1]/8-4[8:1],,{8}5,7,1,7,{2}3V51[8:1]/4^7[8:1],{8}2,5,
1,7,1,3,{16}1b/8b,,,5b/7b,,,{8}2b/4b,,,,,5,6,4,3,
{1}4b/5b,,
E

MASTER

(150)
{2}5h[2:1],4h[2:1],3h[8:5],{8},2,1,
{4}8h[4:1],1h[4:1],2h[4:1],3h[4:1],8h[4:1],7h[4:1],6h[4:1],5h[4:1],{8}4,
{2}4h[2:1],5h[2:1],6h[8:5],{8},7,8,
{4}1h[4:1],8h[4:1],7h[4:1],6h[4:1],5w1[8:5],,,,{8},
{4}2h[4:1]/5,5,1h[4:1]/5,5,5/8h[2:1],5,{8}5,1,25,3,5,1,5,2,5,3,5,4,5,1,5,8,5,7,5,6,
{16}45,,,3,34,,,6,56,,,3,{8}34,56,35,24,13,28,17,68,57,46,
{16}3,3,2,2,1,1,8,8,7,7,6,6,5,5,4,4,25,,{24}3,4,3,4,,,47,,,6,5,6,5,,,{4}2b/7b,
1h[32:7]/5h[32:7],{32}2-6[8:1],3,4,5,6-2[8:1],7,8,1,{2}2b/5h[2:1],
1pp6[8:3],{8}8b,,5,5-2[8:1]*-8[8:1],,5,{4},1b/8h[4:1],7h[4:1],6h[8:3],{8},5qq2[4:1],,8b,8b,8b,
6,7,{4},3h[4:1]/4b,1h[4:1],6pp2[8:3],,5b,{8}5,6,{32}7p4[4:1],6,5,4,3,2,1,8,
{16}7,,,,1b-5[16:1],,,1/7b-4[16:1],,,2b-6[8:1]/7,,{4},5,{16}7,7,,45,,2,2,,
{2}1b/4-8[8:1],4qq4[4:1]/8b,8qq3[8:3],{8}1b,,4,4-1[8:1]*-7[8:1],,4,,,
{4}1h[4:1]/8b,2h[4:1],3h[8:3],{8},4pp7[8:3],,1b,1b,1b,
3,2,{4},5b/6h[4:1],8h[4:1],3qq7[8:3],,4b,{8}1V36[4:1]/5V72[4:1],37,{2},
{16}8b-4[16:1],,,2b-5[16:1]/8,,,2/7b-3[8:1],,{4},4z8[4:1],,,
4/7h[4:1],4,4/8h[4:1],4,1h[2:1]/4,4,{8}4,8,47,6,45,5,46,7,48,,46,6,47,8,14,,47,8,46,5,
{16}45,,,6,56,,,3,34,,,6,{8}56,34,46,57,68,17,28,13,24,35,
{16}6,6,7,7,8,8,1,1,2,2,3,3,4,4,5,5,47,,{24}6,5,6,5,,,25,,,3,4,3,{16}4,,8,8,1,1,
8-5[16:1],,,8h[16:3],,,1-4[16:1],,,1h[16:3],,,6,,48,,
2-4[16:1],,,2h[16:3],,,7-5[16:1],,,7h[16:3],,,4h[4:1],,,,
5^8[16:1],,,5h[16:3],,,4^1[16:1],,,4h[16:3],,,8,,7,7,{8}2,3,4,5,6,7,{16}1,1,8,8,
1-4[16:1],,,1h[16:3],,,8-5[16:1],,,8h[16:3],,,2,,15,,
7-5[16:1],,,7h[16:3],,,2-4[16:1],,,2h[16:3],,,5h[4:1],,,,
4^1[16:1],,,4h[16:3],,,5^8[16:1],,,5h[16:3],,,1,,2,2,
16,,{24}7,8,7,8,,,38,,,2,1,2,1,,,8,1,8,1,8,1,{4}2b/7-4[16:1],
{16}1-5[16:1]/7,,,1/7-3[16:1],,,{8}4-8[16:1]/7,4,4,
{16}7-4[16:1],,,2-7[16:1]/7,,,2/6-3[16:1],,,1-5[16:1]/6,,,18,,,,
6-2[16:1],,,3-7[16:1]/6,,,3/8-4[16:1],,,1-5[16:1]/8,,,17,,8,8,{8}2,3,4,5,6,7,{16}1,1,8,8,
2h[8:1]/7h[8:1],,,4h[8:1]/5h[8:1],,,1h[8:1]/2h[8:1],,,5h[8:1]/6h[8:1],,,7h[8:1]/8h[8:1],,,
2h[8:1]/4h[8:1],,,6h[8:1]/8h[8:1],,,1h[8:1]/3h[8:1],,,5h[8:1]/7h[8:1],,,1h[8:1]/8h[8:1],,,18,,
{24}1,2,3,8,7,6,2,3,4,7,6,5,2,3,4,1,2,3,7,6,5,8,7,6,25,,,3,4,3,4,,,47,,,6,5,6,5,,,{4}2b/7b,
4h[32:7]/8h[32:7],{32}7-3[8:1],6,5,4,3pp8[4:1],2,1,8,{2}4h[2:1]/7b,
6qq2[8:3],{8}1b,,4,4-1[8:1]*-7[8:1],,4,{4},1^4[4:1]/8b,4q6[4:1],6^1[8:1],{8},5pp8[4:1],,1b,1b,1b,
3,2h[8:3],{4},5b-8[4:1],8-3[4:1],3qq7[8:3],,4b,{8}4,3,{32}2q5[4:1],3,4,5,6,7,8,1,
{16}2,,,,8b-4[16:1],,,2b-5[16:1]/8,,,2/7b-3[8:1],,{4},4,{16}2,2,,45,,7,7,,
{2}5w1[8:1]/8b,1b/5pp5[4:1],3pp7[8:3],{8}8b,,5,5-2[8:1]*-8[8:1],,5,,,
{4}1b/8^5[4:1],5p3[4:1],3^8[8:1],{8},4qq1[8:3],,8b,8b,8b,
{8}6,7h[8:3],{4},4b-1[4:1],1-6[4:1],6pp2[8:3],,5b,{8}5V38[4:1]*V72[4:1],46,{2},
{16}1b-5[16:1],,,1/7b-4[16:1],,,2b-6[8:1]/7,,{4},5s1[16:5],,,
{1}2b,,
E

Re:MASTER


名前:
コメント:

タグ:

+ タグ編集
  • タグ:
最終更新:2026年10月04日 09:33