アットウィキロゴ

FREEDOM DiVE (tpz Overcute Remix)

アーティスト t+pazolite

BPM EASY BASIC ADVANCED EXPERT MASTER Re:MASTER
234 4 7 9+ 12+ 14 -

EXPERT MASTER Re:MASTER
譜面制作者 華火職人 サファ太 -

EASY


BASIC


ADVANCED


EXPERT

(234.56)
{4}5,78,1,1h[4:1],8q5[2:1],,,,4,12,8,8h[4:1],2,36,4b-2[8:1]/5,,
8,56,2,2h[4:1],1,34,7,7h[4:1],8,45,1,45,3p5[2:1]/6q4[2:1],,,,
6,78,5,28,4,12,4h[4:1]/6h[4:1],,3,12,4,17,5,78,3h[4:1]/5h[4:1],,
6,12,34,28,3,78,56,17,8h[4:1],7h[4:1],6h[4:1],5h[4:1],4h[4:1],3h[4:1],2h[4:1],1b,
{0.5}4pp1[4:5]/6h[2:3],2h[2:3]/8pp5[4:5],{2}6h[1:1],,5h[1:1],,4h[2:1],3h[2:1],4,,
{8}5h[4:1]/6h[4:1],,,56,,,3,,3h[4:1]/4h[4:1],,,34,,,6,,
5h[4:1]/7h[4:1],,,57,,,3,,2h[4:1]/4h[4:1],,,24,,,6,,
{1}1^6[4:1]/8h[2:1],1h[2:1]/8^3[4:1],4^1[4:1]/5^8[4:1],{4}1b/8b,2b/8b,3b/6b,4b/5b,
4h[4:1],3h[4:1],2h[4:1],1h[4:1],5h[4:1],6h[4:1],7h[4:1],8b,
1,68,1,68,5^2[4:1]/6p1[4:1],,,8b,4,13,4,13,28,17,1/8b-6[8:1],,
1,37,4,26,1p4[4:1]/8^5[4:1],,,2b/6b,5,37,1,37,46,1b,5b,1b,
4,17,4,17,68,57,46,35,4,28,4,28,13,24,35,46,
45,7,45,2,78,16,25,34,5h[4:1]/7h[4:1],,2h[4:1]/4h[4:1],,4-1[4:1]/5-8[4:1],,,2b/7b,
45,{8}2,2,{4}4,68,45,{8}7,7,{4}5,13,45,{8}6,6,8,,3,3,{4}1,45,78,12,
1h[4:1]/8-5[8:1],,4-8[8:1],,17,56,28,34,56,12,34,18,27,5b/6b,3b/4b,5b/6b,
24,25,26,27,{8}6,6,5,,3,3,{4}4,36,26,16,68,{8}7,7,8,,2,2,1,,
{4}1q6[4:1]/8h[2:1],,,57,1h[2:1]/8p3[4:1],,,24,4q1[2:1]/5p8[2:1],,,,2b/7b,34,1b/8b,56,
2/7h[4:5],3,4,5,6h[4:1],,45,,2h[4:5]/7,6,5,4,3h[4:1],,45,7b,
5/6h[2:1],4,5,2,3h[2:1]/4,5,4,6,4,4,5,5,3h[4:1]/6h[4:1],,2b/7b,,
3,4,5,{8},6h[8:3],,,{4}5,45,,6,5,4,{8},3h[8:3],,,{4}4,45,,3,5,4,{8},6h[8:3],,,{4}5,45,,6,4,5,,
{2}45,1h[4:1]/3h[4:1],45,6h[4:1]/8h[4:1],45,2h[4:1]/3h[4:1],45,6h[4:1]/7h[4:1],
4h[4:1]/5h[4:1],5h[4:1]/7h[4:1],4h[4:1]/5h[4:1],2h[4:1]/4h[4:1],{4}45,3,45,6,45,2,45,7,1h[4:1]/8h[4:1],,18,2b/7b,
45,{8}3,4,{4}2,78,45,{8}6,5,{4}7,12,45,{8}3,4,2,,6,5,7,,12,,8,8,1,,
{4}4h[4:1]/5-8[8:1],,1-5[8:1]/2,,46,18,35,18,{8}5/7h[4:1],5,5,,2h[4:1]/4,4,{4}4,5b,1b/2b,7b/8b,1b/8b,
35,36,37,38,{8}2,2,4,,7,7,{4}5,36,26,16,68,{8}7,7,5,,2,2,4,,
{4}4^7[4:1]/5h[2:1],,,17,4h[2:1]/5^2[4:1],,,28,1p4[2:1]/8q5[2:1],,,,1b/8b,5b/6b,1b/8b,3b/4b,
18,{8}7,8,5,,2,1,4,,7,8,{4}5,34,45,{8}3,4,1,,6,5,8,,3,4,{4}1,56,
5/7-1[8:1],,2-6[8:1]/4,,57,18,24,18,5-2[8:1]/6-1[8:1],,3-8[8:1]/4-7[8:1],,16,4b/5b,7b/8b,1b/2b,
56,57,34,24,{8}1,8,1,7,1,6,{4}1b,78,68,12,13,{8}4,5,4,6,4,7,4b,,
{4}4h[2:1]/5p2[4:1],,,13,4q7[4:1]/5h[2:1],,,68,1V75[2:1]/8V24[2:1],,,,3b/6b,7b/8b,4b/5b,1b/2b,
46,36,26,16,18,28,38,48,{8}5h[4:1]/6,6,6,,3/4h[4:1],3,3,,67,67,67,,23,23,23,,
{0.5}1h[1:2]/8b,8h[2:3],27,,
E

MASTER

(234.56)
{8}4h[4:1]/6,,8,,5/6h[4:1],5,{4}8,4h[4:1]/6,8,3/5h[4:1],1,
3h[4:1]/5,1,{8}3/4h[4:1],3,{4}1,3h[4:1]/5,8,4b-1[8:1]/6b,,
{8}7h[4:1],,8,8,7,8,16,,2h[4:1],,1,1,2,1,38,,
1h[4:1],,8,8,1,1,18,18,27,27,36,36,45,,2b/7b,,
6h[4:1],5,4h[4:1],5,6h[4:1],5,4h[4:1],5,6h[4:1],5,3h[4:1],4,6,5,47,,
3h[4:1],4,5h[4:1],4,3h[4:1],4,5h[4:1],4,3h[4:1],4,6h[4:1],5,4b-1[8:1],,7b,,
7h[4:1],8,1h[4:1],8,7h[4:1],8,2h[4:1],1,7h[4:1],8,2h[4:1],1,7,8,
{4}1/6-3[8:1],2-7[8:1],6-3[8:1],2-7[8:1],6^3[8:1],2^7[8:1],6,56,34,
{2}2/5h[2:1],3h[2:1],4h[2:1],5h[2:1],6h[2:1],5h[2:1],4,{8}4,4,5,5,
{4}3/6h[2:1],,3h[4:1],4h[4:1],2h[4:1],5h[4:1],4h[4:1],7h[4:1],
5h[4:1],6h[4:1],5h[4:1],7V13[4:3]*V15[4:3],{1},
{8}3h[4:1]/4,,4,3,34,,25,,{12}3,4,5,{4}6,47,56,5/6h[4:1],{8}5,6,56,,45,,3h[4:1]/4,,4,3,34,,25,,
{4}4/5h[4:1],3,4h[4:1]/5,6,4/5h[4:1],2,{16}24,,,45,,,57,,{4}5h[4:1]/7,8,2/4h[4:1],1,2h[4:1],4h[4:1],5h[4:1],7,
{8}4,4,6,6,2,2,7,7,{16}1,8,1,8,1,8,1,8,1,8,1,,2b/7b,,,,
{4}2-4[8:1],12,6-8[8:1],56,1-5[8:1],1/5-3[8:1]*-7[8:1],,28,
7-5[8:1],78,3-1[8:1],34,68,4-2[8:1]/6-4[8:1],4b-8[8:1]/6b,1b,
1-5[8:1],18,6-2[8:1],56,4-8[8:1],34,1-4[8:1]*-6[8:1],1b,
7-4[8:1],78,2-5[8:1],12,8w4[8:1],,2b/6b,4b/8b,
1h[8:1]/2h[8:1],5h[8:1]/7h[8:1],2h[8:1]/4h[8:1],7h[8:1]/8h[8:1],5h[8:1]/6h[8:1],2h[8:1]/4h[8:1],5-1[8:1]/7v1[8:1],,
2h[8:1]/8h[8:1],5h[8:1]/7h[8:1],3h[8:1]/4h[8:1],7h[8:1]/8h[8:1],2h[8:1]/4h[8:1],5h[8:1]/7h[8:1],2v8[8:1]/4-8[8:1],,
1h[8:1]/7h[8:1],2h[8:1]/4h[8:1],6h[8:1]/7h[8:1],3h[8:1]/4h[8:1],7h[8:1]/8h[8:1],2h[8:1]/3h[8:1],5h[8:1]/6h[8:1],47,
{8}3b/5,3,6,6,4/7b,7,2,2,1b/6,1,7,7,{16}1,8,1,8,2b/7b,,,,
{8}2-5[8:1],2,1-6[8:1],1,2-5[8:1],2,8-5[8:1],8,1-4[8:1],1,8-5[8:1],8,1-4[8:1],1,7-4[8:1],7,
8-3[8:1],8,7-4[8:1],7,8-3[8:1],8,6-3[8:1],6,2-7[8:1],2,6-3[8:1],6,1,1,2,3,
{4}4-8[8:1]/7-4[8:1],,1>5[4:1],5<1[4:1],1>5[4:1],5<1[4:1],1>5[4:1],5,
7h[4:1],5h[4:1],4h[4:1],2h[4:1],{16}1,8,7,6,{4}1b/5b,3b/7b,1b/6b,
2-5[8:1],7-4[8:1],3-8[8:1],8,{12}7,7,5,{4}56,24,78,
{16}1,2,3,4,5,6,7,8,1,2,3,4,5,6,7,8,15,2,3,4,15,6,7,8,15,2,3,4,5b/7b,,,,
{8}1-3[8:1],1,8-4[8:1],8,1-5[8:1],1,8,8,{2}3-8[8:1]/7-4[8:1],{16}1/5h[16:3],,,3h[16:3],,,6,,
{8}4^1[8:1]/6,,8,8,3/5^8[8:1],,1,1,{4}2b/4b,5b/7b,1b-4[8:1]/8b-5[8:1],,
3-5[8:1],7-1[8:1],3-5[8:1],7,8-5[8:1],1-4[8:1],8-5[8:1],2,3-5[8:1],7-1[8:1],3-5[8:1],7,8^5[8:1],1^4[8:1],8b,2b/6b,
4-1[8:1],5-8[8:1],4-1[8:1],6,7-1[8:1],3-5[8:1],7-1[8:1],3,4^1[8:1],5^8[8:1],4^1[8:1],6,{16}7,8,7,,2,1,2,,6,5,6,,4b/7b,,,,
{8}3h[4:1],,4,,25,,,6h[8:3],,,5,,47,,,,3h[4:1],,4,,25,,,6h[8:3],,,5,,47,,,,
3h[4:1],,4,,25,,,6h[8:3],,,5,,{4}47,,4h[4:1],5,36,,
6-1[8:5],6,6,6,3-8[8:5],3,3,3,5-1[8:5],5,5,5,4-8[8:5],4,4,4,
5-7[4:1],45,4-2[4:1],45,5-8[4:1],45,4-1[4:1],45,
5-1[4:1],45,4-8[4:1],45,{8}5,5,3,3,7,7,18,18,{2}2h[2:1]/7,{16}1,8,7,6,2b/5b,,,,
{8}7-4[8:1],7,1-5[8:1],1,7-4[8:1],7,1-5[8:1],1,7-2[8:1],7,3-6[8:1],3,7-2[8:1],7,3-6[8:1],3,
7-4[8:1],7,3-8[8:1],3,7-4[8:1],7,2-5[8:1],2,6-1[8:1],6,2-5[8:1],2,8,8,7,6,
{4}2^5[8:1]/5-1[8:1],,8<4[4:1],4>8[4:1],8V64[4:1],4V28[4:1],8V64[4:1],4,
3h[4:1],1h[4:1],7h[4:1],5h[4:1],{16}1^6[8:1],2,3,4,{4}1b-5[8:1],1b,3b/7b,
7^4[8:1],2^5[8:1]/7,2/6^1[8:1],16,{12}2,2,4,{4}34,57,12,
{16}48,7,6,5,48,3,2,1,48,7,6,5,48,3,2,1,48,7,6,5,48,3,2,1,48,7,6,5,2b/4b,,,,
{8}7-3[8:1],7,2-6[8:1],2,8-4[8:1],8,1,1,{2}2-5[8:1]/6-1[8:1],{16}4h[16:3]/8,,,6h[16:3],,,4,,
{8}4^1[8:1]/5,,8,8,4/5^8[8:1],,1,1,{4}2b-5[8:1]/4b,2b/8b-4[8:1],1b/8b,2b/6b,
{8}3-8[8:1],3,5-1[8:1],5,2-6[8:1],2,8-4[8:1],8,3-6[8:1],3,7-4[8:1],7,3-8[8:1],3,6-1[8:1],6,
2-5[8:1],2,7-3[8:1],7,4^1[8:1],4,8^5[8:1],8,2-6[8:1],2,4-8[8:1],4,1,1,2,3,
{4}4bq8[8:1]/7b^4[8:1],,1>5[4:1],5V71[4:1],1V35[4:1],5,{16}8,,8,,48,37,26,15,
{2}4b/8bw4[8:1],1bw5[8:1],{16}1^6[8:1],2,3,4,{4}1b-5[8:1],1b,3b/7b,
{8}6^1[8:1],6,3^8[8:1],3,7^4[8:1],7,3,3,{12}2,2,8,{4}18,57,24,
{16}15,6,7,8,15,2,3,4,15,6,7,8,15,2,3,4,15,6,7,8,15,2,3,4,15,26,37,48,1b/5b,,,,
{8}4-8[8:1],4,6-2[8:1],6,3-8[8:1],3,6,6,{2}1v3[8:1]/5v7[8:1],{16}2h[16:3]/6,,,5h[16:3],,,3,,
{8}3/4q8[8:1],,1,1,5p1[8:1]/6,,8,8,{4}8b^3[8:1]*^5[8:1],8bw4[8:1],8b,2b/6b,
{8}7b/8,7,57,,1/2b,2,24,,5/7b,7,78,,2b/4,2,12,,4b/8,48,3b/7,37,2b/6,26,1b/5,15,
{16}1b,2,3,4,8b,7,6,5,{32}1b,2,3,4,5,6,7,8,1b,2,3,4,5,6,7,8,
{1}1b/5,,1b,,1b,,,,,,
E

Re:MASTER


  • MASTER譜面のノーツの配置ミス、SLIDEの速度の修正、BPMの修正を行いました。 -- けもがみ (2026-05-11 06:59:59)
名前:
コメント:

タグ:

+ タグ編集
  • タグ:
最終更新:2026年10月04日 09:33