BASIC
ADVANCED
EXPERT
MASTER
(150)
{4}4-1[8:1]/8-5[8:1],4x/8x,
{16}7,,7,,1,8,,8,1,,46,,5,4,6,,2,,2,,8,1,,1,8,,35,,4,5,3,,
7,,18,,3,4,,4,2,,46,,5,4,6,,2,,18,,6,5,,5,{2}7^2[8:1],
{8}3h[8:1]/4,4,4/5h[8:1],4,3h[8:1]/4,4,4/5h[8:1],3,
2h[8:1]/4,4,4/6h[8:1],4,2h[8:1]/4,4,4/6h[8:1],3,
3h[8:1]/4,4,4/6h[8:1],4,2h[8:1]/4,4,4/5h[8:1],3,
2h[8:1]/4,4,4/6h[8:1],4,3h[8:1]/4,4,25,,
3b,2b,1-6[8:1],1,4-8[8:1],4,1,1,2/4qq2[8:1]*pp6[8:1],3,,,8,8,1,27,
5h[16:1]/6h[16:1],5h[16:1]/6h[16:1],3h[16:1]/4h[16:1],3h[16:1]/4h[16:1],
6h[16:1],5h[16:1],4h[16:1],3h[16:1],6-3[8:1],6,2-7[8:1],2,8,8,3x/6x,,
2,18,{16}6,5,,5,7,,28,,4,5,3,,7,,18,,3,4,,4,2,,17,,5,4,6,,
2,,18,,6,5,,5,7,,28,,4,5,3,,7,,18,,3,4,,4,2h[16:3],,,3h[16:3],,,4,,
{8}4h[8:1]/5,5,5/6h[8:1],5,4h[8:1]/5,5,5/7h[8:1],4,
3h[8:1]/5,5,5/6h[8:1],5,4h[8:1]/5,6,1q5[4:1]/7-2[4:1],,,,,8x,8,
{16}3,4,2,,6,5,7,,3,4,2,,6,5,7,,18,,36,,,,
B2,B7,E4,E6,E3,E7,E2,E8,B3,B6,B1,B8,B4,B5,B2,B7,E4,E6,E3,E7,E2,E8,B3,B6,B1,B8,B4,B5,C,,,,
{8}6-3[8:1],6,2-8[8:1],2,7V53[8:1],7,2,2,1,1,8-5[8:1],8,1-4[8:1],1,8b,,
{16}5h[8:1]/6h[8:1],,,57,,46,,47,,,E5,E4,{8}E3,,1,24,5,46,{16}7,8,6,,{4}17,
{16}3h[8:1]/4h[8:1],,,24,,35,,25,,,1,1,{8}8,,8,57,4,35,{16}2,1,3,,{4}28,
{16}5h[8:1]/6h[8:1],,,57,,46,,47,,,8,8,{8}1,,1,24,5,46,,18,18,,
3V14[4:1]/7V58[4:1],,,,,,,2x/E1,,6x/E5,,1x/C,,8b,8b,,
6^3[8:1],2,6,1,6^3[8:1],2,6,1,18,{16}3,4,{8}2^5[8:1],16,2,8,8,47,
{4}4-1[8:1]/7,4/5-8[8:1],4h[4:1]/5,{8}1,8,57,{16}3,4,{8}1v4[8:1]*v6[8:1],28,1,,3x/7x,,
3^6[8:1],7,3,8,3^6[8:1],7,3,8,18,{16}6,5,{8}7^4[8:1],38,7,1,1,25,
{4}2/5-8[8:1],4-1[8:1]/5,4/5h[4:1],{8}8,1,24,{16}6,5,{8}7^4[8:1],28,7,1,1,7,
2-5[8:1]/8,8,28,2,1/7-4[8:1],1,17,1,2-6[8:1]/8,8,28,8,1/7-3[8:1],1,17,1,
2-5[8:1]/8,8,28,2,1/7-4[8:1],1,17,1,{16}18,,,24,,,57,,{4}18,3b/6b,
{2}Cf,,,{24},,,E7,B6,B3,{4}E3,E1,,,E5,,E5,,E5,
45,E4/E6,45,E4/E6,45,E5/E7,45,E3/E5,45,E4/E7,45,E3/E6,Cf,,{16}1x,1x,8x,8x,1x,1x,8x,,
7,,18,,3,4,,4,2,,17,,5,4,6,,2,,18,,6,5,,5,7,,28,,4,5,3,,
{8}18,18,2,34,5,56,7,18,2,35,6,47,{16}6,5,6,5,6,4,5,,
{16}3h[8:1]/4h[8:1],,,24,,35,,25,,,E5,E6,{8}E7,,8,57,4,35,{16}2,1,{8}3,28,,
{16}3h[8:1]/4h[8:1],,,24,,35,,25,,,1,1,{8}8,,1,24,5,46,{16}7,8,{8}6,17,,
{16}3h[8:1]/4h[8:1],,,24,,35,,25,,,8,8,{8}1,,8,57,4,35,,18,18,,
2V41[4:1]/6V85[4:1],,,,,,,7x/E1,,3x/E5,,8x/Ch[8:5],,,,,,,,,,,
{4}4p7[2:1],5,,5,5q2[2:1],4,,4,4p8[2:1],5,,5,5q1[2:1],4,,4,
4^1[2:1],5,5,5,5^8[2:1],4,4,4,4-1[2:1],5,5,5h[4:1],Chf[2:1],,
{32}E1,E8,E7,E6,E5,E4,E3,E2,{4}E1,
{8}3^6[8:1],7,3,8,3^6[8:1],7,3,8,18,{16}6,5,{8}7-3[8:1],48,7,1,1,25,
{4}2-7[8:1]/5,2/6-3[8:1],1h[4:1]/6,{8}5,5,24,{16}6,5,{8}7^4[8:1],28,7,1,1,5,
6^3[8:1],2,6,1,6^3[8:1],2,6,1,18,{16}3,4,{8}2-6[8:1],15,2,8,8,47,
{4}4/7^2[8:1],3^6[8:1]/7,3/8h[4:1],{8}1,8,57,{16}3,4,{8}1^4[8:1]*^6[8:1],28,1,,37,2,
1/7-4[8:1],1,37,3,2-5[8:1]/8,8,26,6,1/7-3[8:1],1,47,4,2-6[8:1]/8,8,25,5,
1/7-4[8:1],1,37,3,2-5[8:1]/8,8,26,6,{4}1/8<4[4:1],4>8[4:1],8,{8}4,4,
3-8[8:1]/5,5,37,7,4/6-1[8:1],4,26,2,3-7[8:1]/5,5,38,8,4/6-2[8:1],4,16,1,
3^8[8:1]/5,5,37,7,4/6^1[8:1],4,26,2,{16}18,,,24,,,57,,{4}1-5[8:1]/8-4[8:1],1x/8x,
{1}1b,,,,,,
E
Re:MASTER
最終更新:2026年10月01日 19:16