BASIC
ADVANCED
EXPERT
MASTER
(195)
{2}5^8[4:1],E5,4^1[4:1],E5,5^8[4:1],4^1[4:1],{4}E5,E4/E6,C/E3/E7,,
{8}28,3,5,2,16,5,4,6,27,3,5,2,16,5,4,7,38,4,5,2,17,5,4,7,38,4,5,2,16,5,48,,
17,6,4,7,58,4,5,2,17,6,4,5,26,4,5,3,27,5,4,7,{4}38,1-5[8:1],2-6[8:1],3-7[8:1],5-1[8:1],4b,
3-8[8:1],5,6-1[8:1],4,3-8[8:1],5,6-1[8:1],4,3-8[8:1],5,6h[4:1],4>6[2:1],5,5,5,37,
{8}6-1[8:1],6,4,4,3-8[8:1],3,5,5,6-1[8:1],6,4,4,3-8[8:1],3,5,5,
6h[8:1],4h[8:1],5h[8:1],3h[8:1],6h[8:1],2h[8:1],8h[8:1],1h[8:1],
5h[8:1],4h[8:1],6h[8:1],3h[8:1],7h[8:1],1h[8:1],8b,,
{2}3-7[8:1]/4-8[8:1],{8}16,16,16,,38,38,47,4h[4:1]/7,,8b,8b,,
{2}5-1[8:1]/6-2[8:1],{8}38,38,38,,16,16,25,2/5h[4:1],,1b,1b,,
{4}3^5[8:1]/6^8[8:1],36,3^5[8:1]/6^8[8:1],36,{8}2,2,5,5,4,7,58,,
{4}4-2[8:1],5-7[8:1],3-1[8:1],6-8[8:1],{8}2,2,5,5,3,2,14,,
{4}3^1[8:1]/6^4[8:1],36,3^1[8:1]/6^4[8:1],36,{8}7,7,4,4,5,2,1-5[8:1]/4,,
{4}8-4[8:1],2-5[8:1],7-4[8:1],1b,{8}6,6,4,4,5,3,26,,
{4}7<2[4:1],2>7[4:1],1,1,{8}27,27,{4}1-4[8:1]/8-5[8:1],18,36,
5-8[8:1],4-1[8:1]/5,4/5-8[8:1],45,{8}B2/E2,B7/E8,3^6[8:1],,8,8,8,,
{4}2>7[4:1],7<2[4:1],8,8,{8}27,36,{4}4-1[8:1]/5-8[8:1],45,36,
4-1[8:1],4/5-8[8:1],4-1[8:1]/5,4/5w1[8:1],,4w8[8:1],,2x/6xqq3[2:5],
{2}E2,E1,E8,E1,E2,E1,{4}3,3^6[4:1],,,
7^2[4:1],4,3^6[4:1],8,7^2[4:1],4,3^6[4:1],8,7^2[4:1],4,3^6[4:1],8,{8}7,7,3,3,5,5<4[8:5],1,1h[8:5],{4},,,
2-6[8:1]/6,2b/8,3/7-3[8:1],1/7b,26,3-1[8:1]/7-5[8:1],37,3-1[8:1]/7-5[8:1],37,
3>7[4:1],7>3[4:1],Cf,8-4[8:1],1-5[8:1],2-6[8:1],3-7[8:1],5b,
6h[4:1],8h[4:1],1h[4:1],3,{8}46,5,37,6,5,4,35,,
{4}2-6[8:1]/6,2/7-3[8:1],17,1,2/4-1[8:1],4/5-8[8:1],5/7-3[8:1],1b/7,
2q6[8:1],6,7p3[8:1],3,2q6[8:1],6,{8}8,8,1,,{4}3p7[8:1],5,6q2[8:1],4>6[2:1],Cf,,,27,
8<4[4:1],4>8[4:1],8<4[4:1],4>8[4:1],8<4[4:1],4,Cf,,
7-5[8:1]/8-4[8:1],7x/8x,1-5[8:1]/2-4[8:1],1x<4[8:3]/2x,Cf,,1b,2b/7b,
{2}3-7[8:1]/4-8[8:1],{8}16,25,34,,12,38,47,5h[4:1]/6,,8b,8b,,
{2}5-1[8:1]/6-2[8:1],{8}38,47,56,,78,16,25,3/4h[4:1],,1b,1b,,
3x/7x,4,6,3x,1x/5x,6,3,7x,5x/8x,4,7,3x,2x/6x,5,3,7,2x/6x,5,3,6x,4x/8x,3,6,2x,1x/4x,5,2,6x,3x/7x,4,6,2,
3x/7x,4,6,3x,1x/5x,6,3,7x,5x/8x,4,7,3x,2x/6x,5,3,7,26,5,3,6,48,3,{4}1-5[8:1],2-6[8:1],3-7[8:1],5-1[8:1],4b,
{8}3,4,5pp4[2:1],6,{2},Cf,,6h[2:3],,4,{4}5,5p4[2:1],{1},
3h[1:1],{4}5,,4,4p5[2:1],,,,,E6,E5,E4,C,
7-5[8:1]/8,1,1/2-4[8:1],8,7-5[8:1]/8,1,12,8<4[4:1],4>8[4:1],8<4[4:1],4>8[4:1],8<8[2:1],Cf,,,
4-2[8:1]/6-8[8:1],46,3-1[8:1]/5-7[8:1],35,4-2[8:1],46,35,26,
5<1[4:1],1>5[4:1],5<1[4:1],1>5[4:1],5<5[2:1],Cf,,1b,1b,
2-4[8:1],1-5[8:1]/2,1/2-4[8:1],1-5[8:1]/2,1/2-4[8:1],28,8,35,
7-5[8:1],7/8-4[8:1],7-5[8:1]/8,7/8-4[8:1],7-5[8:1]/8,17,3b/4b,1b/6b,
2-5[8:1],1-6[8:1]/2,1/2-5[8:1],1-6[8:1]/2,1/2-5[8:1],28,8,35,
7-4[8:1],7/8-3[8:1],7-4[8:1]/8,7/8-3[8:1],7-4[8:1]/8,17,3b,1b/6b,
3-1[8:1],3/4-8[8:1],3-1[8:1]/4,3/4-8[8:1],3-1[8:1]/4,35,46,37,
6-8[8:1],5-1[8:1]/6,5/6-8[8:1],46,3b/5b,1b/7b,4b/6b,2b/8b,
3-1[8:1],3/6-8[8:1],4-1[8:1]/6,4/5-8[8:1],35,35,46,46,
{8}3-8[8:1],3,6-1[8:1],6,4-7[8:1],4,5-2[8:1],5,3-8[8:1],3,6-1[8:1],6,4-8[8:1],4,5,,
5-1[8:1]/6-1[8:1],,56,,28,37,46,,8,17,26,3/5h[4:1],,4b,1b,,
3-8[8:1]/4-8[8:1],,34,,17,26,35,,1,28,37,4-1[8:1]/6,,5b,8b,,
3-8[8:1]/4-8[8:1],,34,,17,26,35,,1,2pp2[8:3]/8,37,6,,8b,8b,,
5-1[8:1]/6-1[8:1],,56,,28,37,46,,8,17,26,3/5<4[8:9],,4b,1b,
{1},,,,,,
E
Re:MASTER
最終更新:2026年03月25日 18:36