アットウィキロゴ

CYBER Sparks

アーティスト Tatsh

BPM EASY BASIC ADVANCED EXPERT MASTER Re:MASTER
192 3 4 8 11+ 12 13+

EXPERT MASTER Re:MASTER
譜面制作者 はっぴー 緑風 犬三郎 玉子豆腐

EASY


BASIC

(192.0){1},,,
{2}1,1,
{2}2,2,
{2}3,3,
{2}4,4,
{2}5,5,
{2}6,6,
{2}7,7,
{2}8,8,
{1}8h[1:1],,
{1}1h[1:1],,
{2}8,8,
{2}7,7,
{2}6,6,
{2}5,4/5,
{2}4,4,
{2}3,3,
{2}2,2,
{2}1,1/8,
{1}8-5[4:3],,
{1}1-4[4:3],,
{1}7-4[4:3],,
{1}2-5[4:3],,
{2}8,8,
{1}8,
{2}7,7,
{1}7/8,
{2}6,6,
{1}6,
{4}5,5,5,,
{4}4,4,4,,
{1}4h[1:1],,
{1}3h[1:1],,
{1}2h[1:1],,
{1}1h[1:1],,
{1}1b/8b,
{4}1,1,1,,
{4}1,1,1,,
{4}2,2,2,,
{4}2,2,2,,
{4}3,3,3,,
{4}3,3,3,,
{4}4,4,4/5,,
{4}5,5,4/5,,
{1}5h[1:1],,
{1}6h[1:1],,
{1}7h[1:1],,
{1}8h[1:1],,
{4}8,8,8,,
{1}8h[2:1],
{4}7,7,7,,
{1}7h[2:1],
{4}6,6,6,,
{1}6h[2:1],
{4}5,5,5,,
{1}4h[2:1]/5h[2:1],
{4}3,3,3,,
{4}3,3,3,,
{4}2,2,2,,
{4}2,2,2,,
{1}1-5[4:3],,
{2}6,6,
{2}5,5,
{2}4,4,
{2}3,3,
{2}4/5,4/5,
{2}5/6,5/6,
{2}4/5,4/5,
{2}3/4,3/4,
{2}2,2,
{2}1,1,
{2}8,8,
{2}7,7,
{2}7/8,7/8,
{2}1/2,1/2,
{1}8-5[4:3],,
{1}1-4[4:3],,
{1}7-4[4:3],,
{1}2-5[4:3],,
{1}8h[2:1],
{2}8,8,
{1}1h[2:1],
{2}1,1,
E

ADVANCED

(192.0){1},,,
{4}3,3,4,,
{4}6,6,5,,
{4}3,3,4,,
{4}6,6,5,,
{2}3h[2:1],4,
{2}6h[2:1],5,
{2}3h[2:1],4,
{2}6h[2:1],5,
{1}5-8[2:1],
{1}4-1[2:1],
{1}8-5[2:1],
{1}1-4[2:1],
{4}5,5,6,,
{4}4,4,3,,
{4}2,1,7,8,
{1}8-5[2:1],
{4}4,4,3,,
{4}5,5,6,,
{4}3,4,6,5,
{1}4-1[2:1],
{1}8h[1:1],
{1}7h[1:1],
{1}6h[1:1],
{1}5h[1:1],
{1}4h[1:1],
{1}3h[1:1],
{1}2h[1:1],
{2}1h[2:1],8,
{2}7,7,
{4}8,8,8,,
{2}2,2,
{4}1,1,1,,
{2}1/8,1/8,
{4}8,1,8,,
{2}2/7,2/7,
{4}1,8,1,,
{1}3h[1:1],
{1}4h[1:1],
{1}5h[1:1],
{1}6,
{1}7h[1:1],
{1}8h[1:1],
{1}1h[1:1],
{1}2,
{1}1-4[2:1]/8-5[2:1],
{4}3,4,3/4,3/4,
{4}3,4,2/5,,
{4}6,5,5/6,5/6,
{4}6,5,4/7,,
{4}7,8,7/8,7/8,
{4}7,8,1/6,,
{4}2,1,1/2,1/2,
{4}2,1,3/8,,
{4}2h[2:1],1,1,,
{4}7h[2:1],8,8,,
{4}2,1,7,8,
{4}1/8,1/8,2/7,,
{4}3h[2:1],4,4,,
{4}6h[2:1],5,5,,
{4}3,4,6,5,
{1}4-1[2:1]/5-8[2:1],
{4}2,1,7,8,
{4}1/8,1/8,1h[4:1]/8h[4:1],,
{4}7,8,2,1,
{4}1/8,1/8,2/7,,
{4}3,4,6,5,
{4}4/5,4/5,4h[4:1]/5h[4:1],,
{4}6,5,3,4,
{4}4/5,4/5,3/6,,
{4}2,1,8,7,
{4}7/8,7/8,1/6,,
{4}7,8,1,2,
{4}1/2,1/2,3/8,,
{2}7/8,1/2,
{4}1/8,1/8,2b/7b,,
{4}1,2,3,4,
{4}5,6,7,8b,
{4}8,7,6,5,
{4}4,3,2,1b,
{4}2,3,4,4/5,
{4}6,7,8,1/8,
{1}1h[2:1]/2h[2:1],
{1}7h[2:1]/8h[2:1],
{4}5,6,7,8,
{4}1,2,3,4b,
{4}4,3,2,1,
{4}8,7,6,5b,
{4}3/4,3/4,5/6,5/6,
{4}4/5,4/5,3/6,,
{4}3,3,4,,
{4}6,6,5,,
{4}3,3,4,,
{4}6,6,5,,
{4}7,7,8,,
{4}2,2,1,,
{4}7,8,1,2,
{4}1/8,1/8,2b/7b,
E

EXPERT

(192)
{8}4,4,5,5,3,3,6,6,4,5,3,6,4,5,3,6,4,4,5,5,2,2,7,7,4,5,2,7,4,5,36,,
1h[1:1]/8,,8,,4,4,4,,8h[1:1],,1,,5,5,5,,2h[1:1],,1,,4,4,4,,7h[1:1],,8,,5,5,5,,
4h[1:1],,1,,6,6,6,,5h[1:1],,8,,3,3,3,,4h[4:3],,8,,6,6,6<3[4:3],,{1},
{4}2h[4:1]/1,4,34,25,7h[4:1]/8,5,56,47,2h[4:1]/1,4,34,25,{8}6,6,57,,3,3,24,,
{4}7h[4:1]/8,5,56,47,2h[4:1]/1,4,34,25,7h[4:1]/8,5,56,47,45,18,27,,
{0.5}1b>7[4:5]/8h[2:3],1h[2:3]/8<2[4:5],4>6[4:5]/5h[2:3],4h[2:3]/5<3[4:5],
{4}4/5h[2:1],,4h[2:1],,5,6,4,3,3h[2:1]/4,,4h[2:1],,3,2,5,6,
5/6h[2:1],,5h[2:1],,6,7,4,3,2h[2:1],,4h[2:1],,5,5,27,4,
4-1[4:1],,,8,8-5[4:1],,,3,3h[2:1],,4,5,6h[2:1],,5,4,
5-8[4:1],,,1,1-4[4:1],,,6,6h[2:1],,5,4,3>6[2:1],,,,1h[2:1]/8h[2:1],,,2b/7b,
{8}12,3,48,,78,6,15,,2,2,4,4,3,4,25,,78,6,15,,12,3,48,,7,7,5,5,6,5,47,,
12,3,48,,78,6,15,,2,2,4,4,3,4,{4}25,56,78,12,34,18,45,27,
{1}5>8[2:1]/6h[4:3],3h[4:3]/4<1[2:1],{4}45,2-6[4:1],,7-3[4:1],,1h[4:1],8,27,
{1}3h[4:3]/4<1[2:1],5>8[2:1]/6h[4:3],{4}45,7-3[4:1],,2-6[4:1],,8b,,{8}45,45,45,,
6,6,57,,18,2,{4}13,34,56,47,25,{8}3,3,24,,18,7,{4}68,56,34,25,47,
{8}6,6,57,,18,2,{4}13,34,56,47,25,{8}3,3,24,,18,7,{4}68,56,34,25,47,
{8}2,2,13,,34,5,{4}4/6h[4:1],8h[4:1],1h[4:1],3h[4:1],6,
{8}7,7,68,,56,4,{4}3h[4:1]/5,1h[4:1],8h[4:1],6h[4:1],3,
1h[2:1],,8,{8}27,27,,45,{4}45,45,45,
{8}4,4,5,5,1,1,7,7,3,5,4,6,2,4,35,,5,5,4,4,8,8,2,2,6,4,5,3,7,5,46,,
8,8,1,1,5,5,3,3,7,1,8,2,6,8,17,,1,1,8,8,4,4,6,6,2,8,1,7,3,1,28,,
3,3,5,5,1,1,4,4,2,8,3,8,1,7,68,,6,6,4,4,8,8,5,5,7,1,6,1,8,2,13,,
{2}8^5[4:1],1^4[4:1],8<1[2:1],,
{4}3h[4:3]/4,4,4,4,4/7h[4:3],5,6,8,5/6h[4:3],5,5,5,2h[4:3]/5,4,3,1,
{8}8,8,1,1,7,7,8,8,{4}17,56,34,18,{8}1,1,8,8,2,2,1,1,{4}28,34,56,17,
{0.5}8<1[4:5],8<1[4:5],,,
E

MASTER

(192)
{8}3,5,4,6,3,5,4,6,2,5,3,6,4,7,5,5,6,4,5,3,6,4,5,3,7,4,6,3,5,2,4,4,
2h[1:1],,4,4,4,,5,,7h[1:1],,5,5,5,,4,,2h[1:1],,4,4,4,,5,,7h[1:1],,5,5,5,,4,,
3h[1:1],,4,4,4,,5,,6h[1:1],,5,5,5,,4,,3h[1:1],,4,4,4,,5,,{1}6<3[2:1],
{8}2,{4}2-5[8:1],6-1[8:1],2-5[8:1],{8}8,8,{4}7-4[8:1],3-8[8:1],7-4[8:1],{8}1,
1,{4}2-5[8:1],6-1[8:1],2-5[8:1],{8}8,8,{4}7-4[8:1],3-8[8:1],7-4[8:1],{8}1,
1,{4}2-5[8:1],6-1[8:1],2-6[8:1],{8}8,8,{4}7-4[8:1],3-8[8:1],7-3[8:1],{8}1,
1,{4}2-5[8:1],6-1[8:1],2-6[8:1],{8}8,8,7-4[8:1],,3,3,,27,,
{1}1>8[4:9],1,2,3,8<1[4:9],8,7,6,
{4}2,35,7,46,2,1^4[4:1],5,5,7,46,2,35,7,8^5[4:1],4,4,
2,35,7,46,2,1^4[4:1],5,5,7h[4:1],5h[4:1],4h[4:1],2,18,45,36,
3p5[2:1]/5,4h[2:1],,,4/6q4[2:1],5h[2:1],,,46,3h[4:1]/5h[4:1],,4h[4:1]/6h[4:1],,3h[2:1]/5,,4,
1/6p7[2:1],2h[2:1],,,3q2[2:1]/8,7h[2:1],,,35,{2}4h[4:1]/6h[4:1],3h[4:1]/5h[4:1],4/6h[2:1],5,
{4}4h[8:3]/5h[8:3],,45,2b/7b,
{8}2-5[8:1]/8,7,6,,2-5[8:1]/8,7,6,,2-5[8:1]/8,7,{4}6-1[8:1],1,27,
{8}1/7-4[8:1],2,3,,1/7-4[8:1],2,3,,1/7-4[8:1],2,{4}3-8[8:1],8,27,
{8}2-5[8:1]/8,7,6,,2-5[8:1]/8,7,6,,2-5[8:1]/8,7,{4}6-1[8:1],1,27,
3-6[8:1],7-2[8:1],4-1[8:1],8-5[8:1],3-6[8:1],7,1b/8b,4>6[2:1]/8,
5h[2:1],,,1/5<3[2:1],4h[2:1],,,2-6[8:1]/6,8,3/7-3[8:1],1,2/6<3[2:1],4,,,1>7[2:1]/5,
8h[2:1],,,4/8<2[2:1],1h[2:1],,,3-7[8:1]/7,5,2/6-2[8:1],4,3^8[4:1]/7^4[4:1],,,{8}18,27,3-6[8:1]/6,,
8,8,7-4[8:1],,1,1,{4}2,3-8[8:1]/5,7-4[8:1],1-5[8:1],6-3[8:1],
{8}1,1,2-5[8:1],,8,8,{4}7,4/6-1[8:1],2-5[8:1],8-4[8:1],3-6[8:1],
{8}8,8,7-4[8:1],,1,1,{4}2,3-8[8:1]/5,7-4[8:1],1,3/6^3[8:1],
{8}2,2,1-4[8:1],,6,6,{4}7,4/8-4[8:1],2-7[8:1],5-8[8:1],3^6[8:1],
{8}7,7,8-5[8:1],,3,3,{4}2,1-4[8:1]/5,7-2[8:1],4-1[8:1],6-3[8:1],
{8}2,2,1-4[8:1],,6,6,{4}7,4/8-4[8:1],2-7[8:1],5-8[8:1],3^6[8:1],
{8}7,7,8-5[8:1],,3>6[4:3],,5,5,{4},,,36,
2-5[8:1]/5,7-4[8:1],3-8[8:1],6-1[8:1],2-5[8:1],7-4[8:1],{8}3,3,24,,
{4}4/7-4[8:1],2-5[8:1],6-1[8:1],3-8[8:1],7-4[8:1],2-5[8:1],{8}6,6,57,,
{4}2-8[8:1]/5,6-4[8:1],3-7[8:1],6-2[8:1],3-5[8:1],7-1[8:1],{8}3,3,24,,
{4}3/7-1[8:1],3-5[8:1],6-2[8:1],3-7[8:1],6-4[8:1],2-8[8:1],{8}6,6,57,,
{4}3-6[8:1]/6,8-5[8:1],4-1[8:1],7-2[8:1],3-6[8:1],8-5[8:1],{8}3,3,24,,
{4}6-3[8:1],1-4[8:1],5-8[8:1],2-7[8:1],6-3[8:1],1-4[8:1],{8}6,6,57,,
{2}2-5[8:1]/6-1[8:1],3-8[8:1]/7-4[8:1],{16}1,8,1,8,1,8,1,8,{4}1,27,
6h[4:1],8h[4:1],1h[4:1],3-6[8:1],7-2[8:1],4-1[8:1],8-5[8:1],4,
3h[4:1],1h[4:1],8h[4:1],6-3[8:1],2-7[8:1],5-8[8:1],1-4[8:1],5,
{8}6,6,8,8,1,1,{4}3-6[8:1],7-2[8:1],4-1[8:1],8-5[8:1],4,
{8}3,3,1,1,8,8,{4}6-3[8:1],2-7[8:1],5-8[8:1],1-4[8:1],5<4[4:7],
{0.5}4,5<4[2:3],,,
E

Re:MASTER

(192)
{1}4h[4:11]/5h[4:11],,,
{8}7,8,6,4,7,3,8,2,2,4,3,5,4,6,5,7,2,1,3,5,2,6,1,7,7,5,6,4,5,3,4,2,
7,7,6,8,5,5,6,4,8,8,1,7,4,4,5,3,6,6,5,7,1,1,8,2,5,5,4,6,2,2,3,1,
4,4,3,5,1,1,8,2,5,5,4,6,3,3,4,2,8,8,1,7,4,4,5,3,{1}8b>5[2:1],
{8}6,5,47,3,6,5,47,3,3,4,25,6,3,4,25,6,7,8,16,2,7,8,16,2,2,1,38,7,2,1,38,7,
45,3,45,6,34,2,56,7,34,1,56,8,24,18,57,18,{16}3,4,2,,6,5,7,,3,4,1,,6,5,8,,3,5,1,,6,4,8,,2,5,1,,7,4,8,,
{1}1<4[2:1]/2h[1:3],5v8[2:1],1-5[2:1],{2}4h[2:1],5,
{1}5qq8[2:1]/7h[1:3],8-3[2:1],3>5[2:1],5q2[2:1]*-8[2:1],
{8}5,4,6,,5,4,6,,5,4,6,4,7^5[8:1],,7,,4,5,3,,4,5,3,,4,5,3,5,1^3[8:1],,1,,
{8}5,4,6,,5,4,6,,5,4,6,4,7^5[8:1],,7,,3,4,{4}5h[2:1],6,3h[2:1],2,6h[2:1],8,{8}2^5[8:3],1,
{4}8,,,{8}6^1[8:3],5,{4}4,,{8},2,2^5[8:3],1,{4}8,,6-2[4:1],2>6[8:3],1,,,{8}7^4[8:3],8,
{4}1,,,{8}7^4[8:3],8,{4}1,,{8},2,2^4[8:3],1,{4}8,,5-1[8:1],1<2[2:1]*>8[2:1],,,,,
1b-5[8:1],1bw5[8:1],1b,,
{8}2-5[8:1],1,28,7,2-4[8:1],1,28,7,2-5[8:1],1,28,7,26,{24}2,3,4,{8}5,8,
7-4[8:1],8,17,2,7-5[8:1],8,17,2,7-4[8:1],8,17,2,38,{24}8,7,6,{8}5,1,
2-5[8:1],1,28,7,2-4[8:1],1,28,7,2-5[8:1],1,28,7,26,{24}2,3,4,{8}5,8,
6-2[8:1],6,{4}1-5[8:1],1^6[8:1],1^4[8:1],5-1[8:1],5^2[8:1],5,{8}7,8,
1b/3b,4,5/7^4[8:1],,37,,2,1,68,5,2^5[8:1]/4,,26,7,8^5[8:1],1,
{4}2^5[8:1]/8,2,8-5[8:1],4pp8[2:1]*qq8[2:1],,,,{8}24,1,
68,5,2^5[8:1]/4,,26,,7,8,13,4,5/7^4[8:1],,37,2,1^4[8:1],8,
{4}1/7^4[8:1],7,1-5[8:1],5<4[2:1],8,,{8},5,6,7,
4b/8b,37,2-5[8:1]/6,,28,7,6<2[4:1],4,2p6[4:1],,4,,5,4,37,2,
15,26,3/7-4[8:1],,17,2,3>7[4:1],5,7q3[4:1],,5,,1,8,37,6,
15,26,3^6[8:1]/7,,37,8,1,3/7-3[8:1],,1-5[8:1]/7,1,4-8[8:1],4,1,2,3,
48,37,2^7[8:1]/6,,26,5,4,26,{16}7,5,6,,1,4,3,,8,4,6,,{4}1b/5b,
{8}4b/8b,37,2-5[8:1]/6,,28,7,6<2[4:1],4,2p6[4:1],,4,,5,4,37,2,
48,37,2/6^3[8:1],,26,1,8,2-6[8:1]/6,,2/8-4[8:1],8,5-1[8:1],5,8,7,6,
15,26,3/7^2[8:1],,37,4,5,37,,37,26,15,4-7[8:1]/8-3[8:1],,4b/8b,,
{16}8,1,8,1,8,2,8,2,8,3,8,3,8,4,8,4,8,7,6,5,8,1,2,3,8,7,6,5,4,3,2,1,
4,8,4,8,4,7,4,7,4,6,4,6,4,5,4,5,4,3,2,1,4,5,6,7,4,3,2,1,8,7,6,5,
8,3,8,3,7,2,7,2,6,1,6,1,5,8,5,8,5,6,7,8,4,3,2,1,5,6,7,8,1,2,3,4,
1,6,1,6,2,7,2,7,3,8,3,8,4,1,4,1,4,3,2,1,5,6,7,8,4,3,2,1,8,7,6,5,
7b,3,7,3,6,2,6,2,5,1,5,1,4,8,4,8,4,5,6,7,4,3,2,1,5,6,7,8,1,2,3,4,
2,6,2,6,3,7,3,7,4,8,4,8,5,1,5,1,5,4,3,2,5,6,7,8,4,3,2,1,8,7,6,5,
8b,3,8,3,{32}8,7,6,5,,,,,{16}1b,6,1,6,{32}1,2,3,4,,,,,
{16}5b,4,6,3,7,2,8,1,{32}7b,6,5,4,3,2,1,8,{4}3b/7b,
{8}6,5,47,3,6,5,47,3,{4}8^5[4:1],5-1[4:1],1-7[8:1],2,
{8}3,4,25,6,3,4,25,6,{4}1^4[4:1],4-8[4:1],8-2[8:1],7,
{8}37,46,37,28,37,56,37,12,26,35,26,17,26,34,26,78,
{16}7b,1,7,1,{32}7,6,5,4,,,,,{16}2b,8,2,8,{32}2,3,4,5,,,,,
{16}6b,5,7,4,8,3,1,2,{32}8b,7,6,5,4,3,2,1,8b,7,6,5,4,3,2,1,
{0.5}4b<1[2:3]/8b,1s5[2:3],,,
E

  • EXP─この列がおかしいので修正 {4}2h[4:1],1,34,25,7h[4:1],8,56,47,2h[4:1],1,34,25,{8}6,6,57,,3,3,24,, {4}7h[4:1],8,56,47,2h[4:1],1,34,25,7h[4:1],8,56,47,45,18,27,, -- らぐにゃ (2026-01-17 21:49:45)
  • EXP─最序盤の単TAPの最後のイーチ 27 → 36 -- らぐにゃ (2026-01-17 21:50:33)
  • Re:MASTER譜面の一部配置を修正しました。追加修正等ありましたらよろしくお願いします。 -- Sugar (2026-11-03 11:47:27)
名前:
コメント:

タグ:

+ タグ編集
  • タグ:
最終更新:2026年11月03日 11:47