アットウィキロゴ

蒼穹舞楽

アーティスト Capchii

BPM BASIC ADVANCED EXPERT MASTER Re:MASTER
195 5 8 12+ 13+ -

EXPERT MASTER Re:MASTER
譜面制作者 シチミヘルツ ぴちネコ -

BASIC


ADVANCED


EXPERT


MASTER

(195)
{4}4/5<2[4:3],,,,4h[4:1],3h[4:1],2h[4:1],{8}1h[4:1],{24},2,3,
{4}4q5[8:3],,,{8},{16}6,5,{2}6h[4:3],3h[4:1],
{4}4>7[4:3]/5,,,,5h[4:1],6h[4:1],7h[4:1],{8}8h[4:1],{24},7,6,
{8}5pp2[4:3],,,3,,,4,,{2}4h[4:3],8h[4:1],
{4}5/6<3[2:1],5,5,5,2h[4:1]/5,5,5/8h[4:1],5,
3h[4:1]/5,5,5/7h[4:1],5,4h[4:1]/5,5,5/6h[4:1],5,
{8}5,6,4,7,3,8,2,1,3,4,2,5,1,6,8,7,
{16}1,8,1,8,1,8,1,8,{24}1,2,3,7,6,5,2,3,4,8,7,6,{2}Cf,8w4[8:1],
{8}27,,2,1,8,7,8,{16}1,8,{4}1s5[4:1],,,C,
1v8[8:1]/2v3[8:1],,{16}6,5,6,5,{4}6-8[8:1],2-4[8:1],5-1[8:1],,3b/7b,
4xv3[8:1]/6xv7[8:1],,{16}2,8,2,8,{8}1-5[8:1],5-1[8:1],,,8-4[8:1],4-8[8:1],,,,5x/6x,
{2}5xv4[8:1]/6xv7[8:1],{16}2,1,2,1,{4}2-4[8:1],6-8[8:1],1s5[4:1],,,
{16}6h[16:3],,,5,{8}6,4,6-4[8:1],3,3,,{16}2h[16:3],,,4,{8}2,5,2-5[8:1],7,7,,
{16}8h[16:3],,,5,{8}8,4,8-4[8:1],1,1,,{2}3^1[8:1]/6^8[8:1],{12}2x/7x,27,27,{4}2x/7x,
{8}7-1[8:1],7,6-2[8:1],6,7-1[8:1],7,4,4,3-5[8:1],3,2-6[8:1],2,3-5[8:1],3,8,8,
7-5[8:1],7,1-3[8:1],1,8-4[8:1],8,1,1,{16}2x,7,2,7,3,6,3,6,4x,5,4,5,
{32}4x,3x,2x,1x,8x,7x,6x,5x,{4}4b>5[4:5],,,,4p5[4:1],,,C,
{16}18,,2,1,2,,36,,7,8,7,,36,,45,,3,4,3,4,{8}3h[4:1],1,1h[4:1],8,8h[4:1],6,
6,26,37,48,15,48,3pp3[8:3]/7pp7[8:3],26,{4},,,4b/8b,
5/7h[2:1],,E4,{8},2h[8:5]/4,,,4,,E6,,,,5/7h[2:1],,5,,E4,,,2p7[8:3],{4},,5b,,
2h[2:1]/4^6[8:1],,B6/E7,{8},5^3[8:1]/7h[8:5],,,,,B3/E3,,,,
{4}2h[2:1]/4^6[8:1],,B6/E7,{8},5^3[8:1]/7h[8:5],,,,,B3/E3,,C,,
1b/8b,,{16}2,1,2,1,{8}2,2<5[8:3],,2x/8x,,,8h[4:1],,1,2,3,4,
{16}B5/E6,,3,B7/C,,3,{8}B1/E1,,2x>8[8:3]*q8[8:3],2x,,{2},{16}2h[8:1]/8h[8:1],,,3h[8:1]/7h[8:1],,,46,,
{8}46,{4}5-1[8:1],6,7>4[8:3],1x/7x,,{16},,7,8,7,,56,,,,
B4/E4,,6,B2/C,,6,{8}B8/E1,,7x<1[8:3]*p1[8:3],7x,,{4},,36,C,
{1}7pp2[1:1],2p7[1:1],{4}7<2[4:3],,,{8},{24},B7,C,{2}B2,E3/E7,
4h[1:1],{8},,,{24},6,7,{2}8h[2:1],5h[2:1],1>8[4:3],,,4h[2:1],
{4}5b-1[2:1],4,4,{8}4,{24},8,7,{4}4/6h[4:1],4,2h[4:1]/4,4,
4/7h[4:1],4,1h[4:1]/4,{8}4,{24},7,6,{4}4/5h[4:1],4,3h[4:1]/4,4,
{8}4x/5xpp8[2:1],4,3,3,2,2,1,1,1xpp4[2:1]/8x,8,7,7,6,6,5,5,
{16}5x,4,6,3,7,2,8,1,{24}8,7,6,2,3,4,7,6,5,1,2,3,{2}8b,{24}4,5,4,{8}5,3x/6x,,
{16}47,,6,5,,3,{8}4,2-4[8:1],1-5[8:1],2,1,2,{16}3,4,,6,{8}5,7-5[8:1],8-4[8:1],7,8,
{16}7,,6,5,,3,{8}4,27,27,{24}B1,B2,E3,B6,B5,E5,{16}3x/4x,,,3x/4x,,,7b/8b,,{4}7b-2[8:1]/8b,C,
{16}1x/8x,,2,1,,7,{8}8,2-6[8:1],1-7[8:1],2,1,5,{16}6,5,,3,{8}4,6-2[8:1],5-3[8:1],6,5,
{16}8,,2,1,,7,{8}8,34,34,56,56,{12}8,8,8,4,4,4,{8}3x-8[8:1]/7x-4[8:1],3x/7x,,,
2b/6b,,3h[8:3],4,5,6h[8:3],7,8,1^6[8:1],2,3,4,5^8[8:1],4,3,2,
1x/8x^3[8:1],7,6,5,4^1[8:1],5,6,7,1x^6[8:1]/8x,2,3,4,{16}5,4,5,4,{4}3b/6b,
{16}2h[8:1],,6,3h[8:1],,6,{8}4-8[8:1],8V24[4:1],,6b,,{16}7h[8:1],,3,6h[8:1],,3,{8}5-1[8:1],1V75[4:1],,3b,,
3,24,15,68,7,{32}1x,2x,3x,4x,5x,,,,8x,7x,6x,5x,{2}4x-8[8:1],{24}1,8,1,8,,,{4}2b/7b,
{8}3h[4:1],1,4h[4:1],2,3h[4:1],1,4,,{16}6,5,7,8,6,5,7,8,{8}6,6,56,,
{16}3,4,3,,2,1,2,,3,4,3,,2,1,2,,7h[8:1]/8h[8:1],,,5h[8:1]/6h[8:1],,,{8}3/6-3[8:1],3x/6x,,C,,
2-5[8:1],1,28,,7-4[8:1],8,17,,{16}2,1,{8}2,34,45,56,{16}7,8,{8}7,18,
2-5[8:1],7-4[8:1],2,7,{16}1,2,3,4,7,6,5,4,{12}1,1,1,5,5,5,{8}2x-5[8:1]/6x-1[8:1],2x/6x,,,
3bqq5[4:1]/7b,7,6,6,7-4[8:1],,7x/8x,,{16}2,1,3,8,2,1,3,8,{4}2-5[8:1],1b/2b,
{8}2/6pp4[4:1],2,3,3,2-5[8:1],,1x/2x,,78,56,34,12,7-4[8:1]/8-4[8:1],,7b/8b/C,,
{16}E2,E6,E1,E7,B1,B6,B8,B7,3,4,3,4,3b,,,,E8,E4,E1,E3,B8,B3,B1,B2,6,5,6,5,6b,,,,
E3,E1,E5,E7,E2,E8,E4,E6,1,8,1,8,{32}1x,2,3,4,5x/8x,7,6,5,{4}1x/4hx[4:1],C,
{32}B8,B7,B6,B5,B4,B3,B2,B1,8x,7x,6x,5x,4x,3x,2x,1x,{1}8b<1[4:5],
{4},,,{8},{24},2,3,{1}4pp2[4:3],{4}8pp6[4:3],,,{8},{24},E2,C,E6,
{1},,,
E

Re:MASTER


名前:
コメント:

タグ:

+ タグ編集
  • タグ:
最終更新:2026年04月12日 13:57