BASIC
ADVANCED
EXPERT
(130)
{8}6,6,5,4,,2,24,,3,3,4,5,,7,57,,6,6,5,4,,2,24,,3,3,5,5,45,,6,6,
{1}5p4[2:1],{8}3,3,4,,6,6,{4}5,2h[4:1],4h[4:1],5h[4:1],7-4[4:1],,,,{8}3,3,
{1}4q5[2:1],{8}6,6,5,,3,3,{4}4,7h[4:1],5h[4:1],4h[4:1],2q7[4:1],,,,{8}6,6,
{4}5pp4[2:1],,,3,{8}3,4,{4}5,36,45,2h[4:1],4,7h[1:1],1h[4:3],,,,{8}3,3,
{1}4qq5[2:1],{8}6,6,5,,3,3,{4}4,7h[4:1],5h[4:1],4,{8}36,36,,27,,18,18,,3x/6x,,
1x^6[4:1]/2x^5[4:1],,,,,,,7hx[4:1],,5,,5,1b,1b,,2h[4:1],,8,{4}8,37,26,1b/8b,2b/7b,3b/6b,4b/5b,
6h[4:3],5,5,4,B3/E4,B2/E2,B7/E8,B6/E6,{8}4,4,5,5,3,3,{4}6,4>5[4:3]/5,,,,,,,36,
18,45,B2/B7/E2/E8,B4/B5/E4/E6,18,36,2b/7b,{8},1x/8x,{4}1x^4[4:1]/8x^5[4:1],,,7x-3[4:1],,1x-5[4:1],,6,
78,45,12,45,78,56,34,{8}12,12,,3,{4}3^6[4:1],,7,1-5[4:1]/8-4[4:1],,,36,
5h[1:1],4,4,4,3h[1:1],4,4,4,
{2}6-3[4:1],2-6[4:1],7-3[4:1],1-4[4:1],{4}5,7,8^5[4:1],,4,2,1^4[4:1],,
6h[1:1],5,5,5,3h[1:1],4,4,4,{8}6,6,4,4,5,5,{4}3^6[4:1],,,,45,
{2}2-5[4:1],6-1[4:1],3>6[2:1],,
{4}8h[2:1],,5,47,36,{8}2,2,{4}4,15,7-3[4:1],,1-5[4:1],,{8}7,7,{4}5,6-3[4:1],,
1-5[4:1],,{8}6,6,{4}57,8-4[4:1],,{8}3,3,{4}2/4z8[2:1],,,,1x,2h[4:1],4h[4:1],5h[4:1],7h[4:1],
{0.5}1b,{4}6h[1:1],,E6,E5,3h[1:1],,E4,E5,
6,6h[4:3],,5,4,3h[4:3],,4,{8}5,5,4,4,6,6,3,3,8,8,1,1,7,7,2q6[4:1],,
{4}Cf,,78,45,12,45,27,{8},4x/5x,{4}4x^1[4:1]/5x^8[4:1],,,2x-6[4:1],,8x-4[4:1],,3,
12,45,78,45,12,34,56,{8}78,78,,6,{2}6^3[4:1],{8}2,2,,3,{2}3^6[4:1],{8}7,7,
,6,{4}6-3[4:1],,2,1b,,45,27,
{8}6,6,5,45,,3,24,,3,3,4,45,,6,57,,6,6,5,4/5pp3[8:5],{4},,,,{8},3,3,4,
{4}4qq8[4:3]/5,,,,,,18,27,{8}3,3,4,45,,6,57,,6,6,4,4,5,,36,36,
{1},,,
E
MASTER
(130)
{16}37,,6,5,,5,,4h[16:3]/7,{8},1,8,7,26,{16}3,4,,4,,2/5h[16:3],{8},8,1,2,
{16}37,,6,5,,5,,4h[16:3]/7,{8},1,8,7,{4}2V46[4:1]/6V82[4:1],,,1b/5b,
{8}3/6q3[4:1],6h[8:5],{4},,8,{16}6,5,7,,1,,3,4,{8}2,8,47,,
1-4[8:1],8-5[8:1],,,4qq4[4:1],5pp5[4:1],,,,,,,4,5,45,,
3p6[4:1]/6,3h[8:5],{4},,1,{16}3,4,2,,8,,6,5,{8}7,1,25,,
8,8,1,E8,E2,B6,B4/B5,B3,,8,8,17,,3,35,,
4p7[4:1]/7,4h[8:5],{4},,1,{16}6,5,7,,1,,3,4,{8}2,8,47,,
1-5[8:1],8-4[8:1],,,2qq2[4:1],6qq6[4:1],,,,,,,1,8,37,,
2/5q2[4:1],5h[8:5],{4},,8,{16}3,4,2,,8,,6,5,{8}7,1,25,,
7h[8:1],5,36,2h[8:1],4,1,8,27,,45,,27,1^4[8:1]/8^5[8:1],18,,,
6,6h[8:3],5,4,3,2h[4:1],,4h[4:1],,1,1,8,2b/6b,3b/7b,,1h[4:1],
,4,4,5,6,7,3,2,{4}1-4[8:1]/8-5[8:1],1x/8x,1-5[8:1]/8-4[8:1],1x/8x,
{8}3,3h[4:1],5,6,45,36,,1,{2}2x^5[8:1]/7x^2[8:1],{8}8,8,,45,
45,45,45,36,36,27,27,18,{4}1/8<1[4:3],Cf,,,,{8},27,27,,45,,
{4}1^4[8:1]/7^4[8:1],1x/7x,2-5[8:1]/8-4[8:1],2x/8x,2-7[8:1]/6-3[8:1],2x/6x,1b/5b,
{8},4,4,5,6qq3[2:1],,2,2,1,1h[4:1],,8-4[8:1],2-6[8:1],,,8b,8b,,
{4}7h[8:1]/8h[8:1],4h[8:1]/5h[8:1],1h[8:1]/2h[8:1],4h[8:1]/5h[8:1],1-5[8:1]/8,7-3[8:1],4-1[8:1],{8}5,5,
,7,{4}7-2[8:1],3-6[8:1],8-4[8:1],1b,,{16}4,5,,5,36,,,,
{8}7,7h[8:7],{4}E5,E8,E6,{8}2,2h[8:7],{4}E5,E2,E4,
{8}5,6,4,3,8-4[8:1],1,1,,4,3,5,6,1-5[8:1],8,8,,5,6,3,2,5-1[8:1],4,4,,4,3,6,7,5,36,36,,
7,7h[8:7],5V31[4:1],5,{2},{8}2,2h[8:7],4V68[4:1],4,{2},
{4}6h[4:1],8h[4:1],1h[4:1],{24}3,,,,E6,E5,{4}E4,,,45,
{8}1,1,8,8,27,27,27,27,36,{16}4,5,4,5,{8}4,36,45,2b/7b,,
{16}46,,3,4,,1h[8:1],,3,{8},8,6,4,{16}35,,6,5,,8h[8:1],,6,{8},1,3,5,
{16}5/6h[16:3],,,7h[16:3],,,8,,3h[16:3],,,2h[16:3],,,{8}1,1,8,{4}3v1[8:1]/7v5[8:1],,2x/6x,
{16}3h[16:3]/8,,,1,,28,,1/7h[16:3],,,8,,8,,7,,1/6h[16:3],,,8,,17,,2h[16:3]/8,,,1,,1>7[2:1],,,,
{2}Cf,{8},8,8,,{16}7h[16:3],,,6h[16:3],,,5,,4h[16:3],,,3h[16:3],,,2,,
{0.5}1b-4[4:5],8-5[4:5],{4}1h[1:1],4,,4,8h[1:1],5,,5,{8}1,1,1,1,5,5,5,5,45,45,36,36,27,27,18,,
{32}1x,2x,3x,4x,5x,6x,7x,8x,{4}1x,1-4[8:1]/8-5[8:1],1x/8x,3-6[8:1]/7-2[8:1],3x/7x,4b/8b,{8},5,
5,4,3pp6[2:1],,7,7,8,8h[4:1],,1-5[8:1],7-3[8:1],,,1b,1b,,
{4}1-4[8:1]/8-5[8:1],1x/8x,2-4[8:1]/7-5[8:1],2x/7x,1/8-4[8:1],2-6[8:1],5-8[8:1],{8}4,4,
,3,2-7[8:1],,6-3[8:1],,4,4^1[8:1],,6,7-2[8:1],,3-6[8:1],,5,5^8[8:1],
,3,{4}2-7[8:1],6,5-2[8:1]/6-1[8:1],5x/6x,,{16}3,4,,4,25,,,,
37,,6,5,,5,,4h[16:3]/7,{8},1,8,7,26,{16}3,4,,4,,2/5h[16:3],{8},8,1,2,
{16}37,,6,5,,5,,4h[16:3]/7,{8},1,8,7,26,{16}3,4,,4,,2/5h[16:3],{8},8,1,1<2[8:5],
{1}Cf,{16}37,,6,5,,5,,4h[16:3]/7,{8},1,8,7,26,{16}3,4,,4,,2/5h[16:3],{8},8,1,2,
{16}37,,6,5,,5,,3h[16:3]/7,{8},8-4[8:1],1b,1b,
{1},,,
E
Re:MASTER
(130)
{16}37,,6,5,,46,,8h[16:3],{8},5,4,3,26,{16}3,4,,35,,1h[16:3],{8},4,5,6,
{16}37,,6,5,,46,,8h[16:3],{8},5,4,3,26,37,48,{16}7,5,,2,{8}4,1,1qq3[2:1],
4,4h[4:1],,,,5,5,,{16}3,4,2,,8,,6,5,{8}7,1,26,,
8-4[8:1],1-5[8:1],8-6[8:1],1-3[8:1],8-4[8:1],1>8[4:1],8,1,,,,3h[4:1]/6h[4:1],,,8,8pp6[2:1],
5,5h[4:1],,,,4,4,,{16}6,5,7,,1,,3,4,{8}2,8,37,,
2q6[8:1],2,7p3[8:1],7,2>6[8:1],2,7,7,,8,7,46,,2,1,1qq3[2:1],
4,4h[4:1],,,,5,5,,{16}3,4,2,,8,,6,5,{8}7,2,{4}1-3[8:1]/8-6[8:1],
1-5[8:1]/8-4[8:1],18,3h[8:1]/6h[8:1],2h[8:1]/7h[8:1],{24}1,8,1,8,1,8,{16}1,3,5,7,{8}1,,1,8pp6[2:1],
5,5h[4:1],,,,4,4,,{16}6,5,{8}7,3>6[4:1],3,6<3[4:1],,3,,
4,4,5,36,27,1-5[8:1]/8-4[8:1],27,,,27,,36,3^1[8:1]/6^8[8:1],45,,,
8,8,3^6[8:1],6>1[8:1],7,7,,8h[4:1],,1,1-4[8:1]*-6[8:1],4v1[8:1]/6v1[8:1],,,,7h[4:1],
,6,5^2[8:1],5,8^5[8:1],8,3,3,{4}1-5[8:1]/2-4[8:1],{24}1x/2x,Cf,,,,,{4}7-5[8:1]/8-4[8:1],{24}7x/8x,Cf,,,,,
{8}1,1,8-4[8:1],2-6[8:1],8,2,8,8,{4}7/B3/B4/Cf,2/B5/B6/Cf,7/B3/B4/Cf,2/B5/B6/Cf,
{8}18,18,27,27,36,36,4/5-1[8:1],45,{1}4b/5>6[2:1],{8}4,4,4-1[8:1]/5-8[8:1],36,45,,3x/6x,,
{4}1-3[8:1]/2-5[8:1],12,7-4[8:1]/8-6[8:1],78,1-3[8:1]/2-5[8:1],1-7[8:1]/2-6[8:1],1b/2b,{8},8,
8,1,7h[4:1],,{32}1,2,3,4,5,6,7,8,{8}1,1,{32}E8,E7,E6,E5,E4,E3,E2,E1,{8},8x>7[4:1],8x,,C,,
{4}7-4[8:1]/8-6[8:1],78,1-3[8:1]/2-5[8:1],12,7-4[8:1]/8-6[8:1],7-3[8:1]/8-2[8:1],7-5[8:1]/8-4[8:1],7b/8b,
{8},2,2,{16}3,4,{8}2,7,8<2[4:1],8,1b,,,,{16}4,5,,5,46,,,,
{8}7h[1:1],,5,,5,4,E6,E5,2h[4:3],,4,,4,5,6,,
5/6h[8:1],5,3^6[8:1]/4h[8:1],3,7p2[8:1],7,1,,3h[8:1]/4,4,5h[8:1]/6^3[8:1],6,2q7[8:1],2,8,,
{12}6,5,7,3-6[8:1],4,2,{8}7-4[8:1],7,1,,{12}3,4,2,6-3[8:1],5,7,{8}2-5[8:1],2,8,,
57,48,1h[8:1]/3h[8:1],,E1/E4,E5/E8,E6/E7,,24,15,6h[8:1]/8h[8:1],,E1/E6,E2/E5,E3/E4,,
15,26,{2}3-8[8:1]/7-4[8:1],{8}15,{32}E2,B2,B3,B4,{8}E5,,,,,,5,45,
36,36,36,36,27,27,27,27,18,{16}4,5,4,5,4,6,4-8[8:1],6,3,,4>5[2:1],,,,
{4}Cf,,,2h[4:1],1h[4:1],{8}4,5,6,{16}6,5,,2,1,,
3h[16:3],,,4h[16:3],,,5,,6h[16:3],,,7h[16:3],,,8,,1,,3,4,2,4,3,4,,,2x/6x,,,3x/7x,,,
8h[16:3],,,5,,6,,2h[16:3],,4,4,,6,,8,,1h[16:3],,,3,,4,,7h[16:3],,5,5,,2>1[8:3],,2,,
{2}Cf,{16},,4x/7x,,,2x/5x,,,1h[16:3],,,2h[16:3],,,3,,5h[16:3],,,6h[16:3],,,7,,
{0.5}8-5[4:5],{4}4h[4:5],E5,,E6,,E5,,E6,
1-4[4:3],5,,5,,4^1[8:1]/5,,15,{8}6,6,56,56,3,3,34,34,6,6,57,57,3,3,24,24,
{32}1b,2,3,4,5,6,7,8,{4}15,3^5[8:1]/4-7[8:1],34,5-2[8:1]/6^4[8:1],5-1[8:1]/6-8[8:1],5b/6b,{8},1,
1,8,2h[4:1],,{32}8,7,6,5,4,3,2,1,{8}8,8,{32}E2,E3,E4,E5,E6,E7,E8,E1,{8},1x<2[4:1],1x,,B1/B8,,
{4}3^5[8:1]/4-7[8:1],34,5-2[8:1]/6^4[8:1],56,3^5[8:1]/4-7[8:1],3-1[8:1]/4-1[8:1],3/4w8[8:1],4b,
{8},8,8,7,4/6^1[8:1],5,4,3,,1,1,2,3^8[8:1]/5,4,5,6,,
8,8,7,46,5,{4}4^1[4:1]*^7[4:1],,,{16}5,4,,4,35,,,,
{16}26,,3,4,,35,,1h[16:3],{8},4,5,6,{16}37,,6,5,,46,,8h[16:3],{8},5,4-1[8:1],5,
6<4[8:3],,5,5h[8:3],,,,,{16}37,,6,5,,46,,8h[16:3],{8},5,4<3[8:3],4,
Cf,,,,,4,5,6,{16}37,,6,5,,47,,8h[16:3],{8},5,4,3,26,{16}3,4,,25,,1h[16:3],{8},4,5,6,
{16}4,5,4,5,3,6,4,6h[8:1],,8,{8}1-5[8:1],8b,1b/4b,
{1},,,
E
最終更新:2021年07月09日 19:56