BASIC
ADVANCED
EXPERT
MASTER
(190)
{4}4,3,2,5,6,{16}6,5,6,7,
{4}6,6,7,4,3,{16}3,4,3,2,
{4}3,3,2,5,6,{16}6,5,6,7,
{4}6,6,7,4,3,{16}3,4,3,2,
{8}3,,3,4,2,,5,,6,,{16}6,5,6,7,
{8}6,,6,5,7,,4,,3,,{16}3,4,3,2,
{8}3,,3,4,2,,5,,6,,{16}6,5,6,7,
{8}6,,6,5,7,,4,,3,,2,,
{8}1h[4:7]/E8,,E7,,E6,,E5,,E8,,E7,,E6,,E5,,
2/E8,,E7,2h[8:11],E6,,E5,,E8,,E7,,E6,,E5,,
8h[4:7]/E2,,E3,,E4,,E5,,E2,,E3,,E4,,E5,,
7/E2,,E3,7h[8:11],E4,,E5,,E2,,E3,,E4,,E5,,
{4}4h[4:1]/E8,E7,3h[4:1]/E6,E5,2h[4:1]/E8,E7,1h[4:1]/E6,E5,
5h[4:1]/E2,E3,6h[4:1]/E4,E5,7h[4:1]/E2,E3,8h[4:1]/E4,E5,
4/E8,4/E7,3/E6,3/E5,7/E2,7/E3,8/E4,8/E5,
{8}4/E8,4,3/E7,3,2/E6,2,1/E5,1,5/E2,5,6/E3,6,7/E4,7,8/E5,8,
2-6[8:1],,2/7-3[8:1],,7/4-1[8:1],,4/5-8[8:1],,5/3-7[8:1],,3/6-2[8:1],6,6/1-5[8:1],,1/8<1[1:2],,
{4}8/4b,,,,,,,,
Cf,,,,
{16}36,,4,5,5,5,5,5,5,5,4,5,5,5,5,5,
5,,,,6h[4:1],,,,3,,,,
5,4,4,4,4,4,5,4,4,4,4,4,5,4,4,4,
4,,,,2h[4:1],,,,5,,,,
36,,4,5,5,5,5,5,5,5,4,5,5,5,5,5,
5,,,,6h[4:1],,,,3,,,,
5,4,4,4,4,4,5,4,4,4,4,4,5,4,4,4,
4,,,,2h[4:1],,,,5,,,,
36,,36,,,,4,5,5,5,3,5,5,5,4,5,
5,,,,8h[4:1],,,,5,,,,
36,,36,,,,5,4,4,4,6,4,4,4,5,4,
4,,,,1h[4:1],,,,5,,,,
36,,36,,,,4,5,5,5,3,5,5,5,4,5,
5,,,,8h[4:1],,,,4,,,,
36,,36,,,,5,4,4,4,6,4,4,4,5,4,
4,,,,1h[4:1],,,,4,,,,
25,,25,,,,3,4,4,4,2,4,4,4,3,4,
4,,,,6h[4:1],,,,3,,,,
74,,74,,,,6,5,5,5,7,5,5,5,6,5,
5h[4:1],,,,6,,,45,,,34,,
25,,25,,,,3,4,4,4,2,4,4,4,1,4,
4,,,,3h[4:1],,,,6,,,,
74,,74,,,,6,5,5,5,7,5,5,5,8,5,
5,,,,27,,,,
18,,,24,,,75,,,18,,,7/4-8[4:1],,,25,,,,,,,,,
{4}1b-5[1:3],8,8,8,2,2,7,7,3,3,6,6,4,4,4,
{8}6h[4:1],5,4,3,6h[4:1],5,4,5,4,3,5,4,7h[4:1],5,3,4,
6h[4:1],5,4,3,3h[4:1],4,5,{16}5,4,{8}3,3,4,5,2h[4:1],4,5,6,
6h[4:1],5,4,3,6h[4:1],5,4,5,4,3,5,4,7h[4:1],5,3,4,
6,5,4,3,3h[4:1],4,5,6,{16}6,5,4,3,6,5,4,3,6,5,4,3,6,5,4,3,
8b,,,,,,,,,,,,,,E5,E4,
E3,,,,,,,,,,,,,,E7,E6,
E5,,,,,,,,,,,,,,E3,E4,
E5,,,,,,,,,,,,,,7,6,
5-8[4:3],,,,,,,,,,,,,,2,3,
4-1[4:3],,,,,,,,,,,,,,,,
{4}8b,,,,
{16}4,5,4,5,4,5,4,5,4,5,4,5,4,5,4,5,
4,3,2,1,4,3,2,1,5,6,7,8,5,6,7,8,
2,3,4,5,2,3,4,5,8,7,6,5,8,7,6,5,
4,3,2,1,5,4,3,2,6,5,4,3,7,6,5,4,
8,7,6,5,8,7,6,5,1,2,3,4,1,2,3,4,
{8}8h[8:3],,,5,4,3,3^6[8:1],,6,,7^2[8:1],,3,,4w8[2:1],,
,,,,,,{12}45,36,27,
{4}1-5[8:1]/8-4[8:1],1^4[8:1]/8^5[8:1],18,2b/7b,
{8}1-5[8:1]/2-4[8:1],,1/2-6[8:1],,2/7-3[8:1],,7/4-1[8:1],,4/5-8[8:1],,3-1[8:1]/5-1[8:1],4,3/5^8[8:1],,45,,
4-1[8:1]/5,,4-8[8:1]/6-8[8:1],5,4^1[8:1]/6,,45,,4/5-8[8:1],,3-1[8:1]/5-1[8:1],4,3/5,,26,7,
{24}8-4[8:1]/7-5[8:1],1x,2x,,,,{8}8/7-3[8:1],,7/2-6[8:1],,2/5-8[8:1],,5/4-1[8:1],,4/6-2[8:1],5,6/4^1[8:1],3,45,6,
4/5-8[8:1],,5/3-7[8:1],4,3/5^8[8:1],6,5/1^4[8:1],2,1/6-3[8:1],5,6/2-6[8:1],1,2/8-4[8:1],7,8/2-5[8:1],1,
{16}27,,8,,8,,4,,4,5,6,5,7-3[8:1],,4,,
7,,1,,2-6[8:1],4,5,6,2,,8,,8,,,,
{12}35,35,35,6/4-1[8:1],64,64,{4},7-3[8:1],7/2-6[8:1],
{16}27,,8,,8,,1,,5,6,7-3[8:1],4,3,,7,,
2-8[8:1],,4,,2-4[8:1]/4,5,6,7,82,,8,,3,,3,,
{12}8,5,6,1,4,3,7,5,6,1,4,3,
{16}5h[4:1],,,,4,3,2,1,{32}5,4,3,2,1,8,7,6,
{16}53,,2,4,2,4,2,4,3,4,2,6,5,7,3,4,
2,5,2,5,1,6,1,6,3,7,3,7,4,6,3,5,
2,4,3,,{32}1,8,7,6,{16}5,,5,,{32}8,1,2,3,{16}4,,4,,
4,5,3,6,2,7,1,8,{32}1,2,3,4,1,2,3,4,8,7,6,5,8,7,6,5,
{4}1h[4:15],,,Ch[1:3],,,,,B1,B8,B2,B7,B3,B6,B4,B5,
{1},,E
Re:MASTER
- 6h[4:1],,,,3,,,,→3h[4:1],,,,6,,,,に修正しました。 -- けもがみ (2026-01-11 00:15:53)
最終更新:2026年04月05日 14:01