BASIC
ADVANCED
EXPERT
MASTER
(166)
{1}4h[1:1],{8}5,5,4,5h[8:3],4h[4:1],,,,
2b/7b,,6,6,4,3,6,5,2h[4:1],4,4,3,34,,45,,46,,2,2,5,6,3,4,56,7,46,7,56,,45,,
27,,3,3,5,6,3,4,7h[4:1],5,5,6,56,,46,,45,,3,3,7,6,4,3,25,6,45,6,{4}35,4^1[2:1],
6,6,6,1q5[2:1]/6,6,6,6,5>1[2:1]/6,6,6,6,1/6p4[2:1],1,2x,2x,3/4q1[2:1],
3,3,3hx[4:1],1<4[2:1],3,3,3,3/4q5[2:1],3,3,3,3/5-3[8:1],1-5[8:1],8-4[8:1],3b,,
{8}2,6,2,5,2,5,2,4,3,B5,3,B1,{16}3h[16:3],,,4h[16:3],,,{8}5,
6,3,6,4,6,4,6,5,7,B5/E5,7,B1/E1,{16}7h[16:3],,,5h[16:3],,,{8}4,
3,5,3,B5/E5,3,4,3,B8/E1,2,2,4,4,{16}3h[16:3]/4,,,4h[16:3],,,{8}5,
6,4,6,B4/E5,6,5,6,B1/E1,{4}7-3[8:1],3-7[8:1],1-5[8:1],5-1[8:1],8b`Cf,,,,B2/B4/E2,B5/B7/E8,3b/6b,,
4/5h[4:1],4,{16}34,,,45,,,56,,{4}5h[4:1]/6,6,{16}57,,,46,,,35,,
{4}2h[4:1]/4,4,{16}24,,,35,,,46,,{4}5/7h[4:1],6V48[4:1],8V24[4:1]*V64[4:1],,
,26,{16}57,,,46,,,35,,{4}2h[4:1]/4,3h[4:1],{16}2,,,34,,,45,,
{4}5h[4:1]/6,7h[4:1],{16}4,,,36,,,25,,{4}25,34,56,1-5[8:1]/8,
1bv7[8:1]/6,1-5[8:1]/6,1v3[8:1]/4,14,{8}8,4h[4:1]/7-4[8:1],,7,3,3,2/8-2[8:1]*-4[8:1],7,
8b,,5,{4}4-8[8:1]/6-4[8:1],4/6-2[8:1],1x/6x,{8}38,7,6,45,3,1-5[8:1]/2,,
{4}1bv7[8:1]/6,1-5[8:1]/6,1v3[8:1]/4,14,{8}8,4h[4:1]/7v4[8:1],,7,3,3,2/8^2[8:1]*-4[8:1],7,
8b,,5,{4}4-8[8:1]/6^4[8:1],46,2h[8:3]/6hx[4:1],{8},{4}6,
1^4[8:1]/5^8[8:1],1-6[8:1]/5v2[8:1],1b/5b,,,,{8}27,27,27,27,{4}45,1v4[8:1]/8-5[8:1],
1b/8b,,{8}25,3,37,6,4/6h[4:1],5,5,7,48,,57,,2/6h[4:1],,5,5,7,6,4,3,25,6,45,6,35,,26,,
36,,46,7,2,2,6,5,3h[4:1],4,4,2,15,,24,,3h[4:1]/7,,4,4,2,3,8,7,46,7,56,7,16,,,,
2h[8:1],4h[8:1],3h[8:1],4h[8:1],2h[8:1],3,2h[4:1]/4,,{16}4,3,,6,{8}5qq5[4:1],7,8x,,8x,,
6,6,57,6,5,6,7h[4:1],,{16}5,6,,3,{8}4pp4[4:1],2,1x,,1x,,
2h[8:1],3h[8:1],4h[8:1],3h[8:1],2b,4,3h[4:1],,{16}1,2,,7,{8}8pp8[4:1],6,5x,,5x,,
7,7,46,3x/5,2,1x/7,1/7x,,{16}3,4,,6,{8}5,45,36,27,18,27,
{4}B4/B5/E4/E6,27,{16}34,,,45,,,56,,{4}5/6h[4:1],5,{16}57,,,46,,,35,,
{4}2h[4:1]/4,3,{16}24,,,35,,,46,,{4}5/7h[4:1],8V26[4:1],6V42[4:1]*V82[4:1],,
,4x/8x,{16}57,,,46,,,35,,{4}2h[4:1]/4,3,{16}34,,,45,,,56,,
{4}6/7h[4:1],8,{16}16,,,27,,,38,,{4}38,56,34,1-5[8:1]/8,
1bv7[8:1]/6,1-5[8:1]/6,1v3[8:1]/4,14,{8}8,4h[4:1]/7-4[8:1],,7,3,2,1/8-3[8:1]*-4[8:1],7,
8b,,56,{4}4-8[8:1]/7v4[8:1],4/7-3[8:1],1x/7x,{8}2,1,8,37,6,1-5[8:1]/5,,
{4}1bv7[8:1]/6,1-5[8:1]/6,1v3[8:1]/4,14,{8}8,4h[4:1]/7v4[8:1],,7,3,2,1/8^3[8:1]*-4[8:1],7,
8b,,5,{4}4-8[8:1]/7^4[8:1],47,2h[8:3]/6hx[4:1],{8},{4}6,
4^1[8:1]/8^5[8:1],4-7[8:1]/8v3[8:1],4b/8b,,,,{8}2x/6b,2b/6x,3x/7b,3b/7x,{4}48,3v8[8:1]/7-4[8:1],
3b/7b,,{8}46,6,4,3,2-8[8:1],2,8,7,6^3[8:1],,3,,28,,3-5[8:1],3,6-2[8:1],6,2,3,45,6,37,2,{4}1^4[8:1]/5^8[8:1],1-6[8:1]/5v2[8:1],
1b/5b,,{8}3-5[8:1],3,5,6,7-1[8:1],7,2-6[8:1],2,6,,47,,26,,8-4[8:1],8,3-7[8:1],3,7,6,45,3,26,7,18,2,35,4,
5h[4:3]/6h[8:7],,,,,,,4h[8:7],5h[8:7],,,,,,,3h[8:7],
4h[8:7],,,,,,,5h[8:5],4h[8:5],,,,,,B5,B4,
{1},,,
E
Re:MASTER
最終更新:2026年04月05日 14:11