| アーティスト |
月鈴 那知(ヴァイオリン) 伴奏:イロドリミドリ |
BASIC
(180.0){1},
{1}1hx[2:3],,
{1}8hx[2:3],,
{1}1-4[4:3],,
{1}8-5[4:3],,
{1}4hx[2:3],,
{2}5,5,
{2}6,6,
{1}7hx[2:3],,
{2}8,8,
{2}1,1,
{1}2-5[4:3],,
{1}7-4[4:3],,
{1}3hx[4:3]/4hx[4:3],
{2},3x/4x,
{1}5hx[4:3]/6hx[4:3],
{2},5x/6x,
{2}4,4,
{2}3,3,
{2}2,2,
{1}1/8,
{2}8,8,
{2}7,7,
{2}6,6,
{1}4b/5b,
{1}3-8[4:3],,
{1}6-1[4:3],,
{1}2h[2:1],
{2}2,3,
{2}4,5,
{4}6,6,6,,
{1}7-2[4:3],,
{2}1,1,
{2}8,8,
{1}1-4[4:3],,
{2}5,5,
{1}4b/5b,
{1}B3,
{1}B2,
{1}B1,
{1}B8,
{1}B7,
{1}B6,
{1}B5,
{1}B4,
{1}B3/B6,
{1}E3/E7,
{1}Chf[1:1],,
{1}1h[1:1],
{2},1,
{1}8h[1:1],
{2},8,
{2}1,1,
{2}2,2,
{1}3h[1:1]/4h[1:1],,
{2}4,4,
{2}5,5,
{2}6,6,
{2}7,7,
{1}8-4[4:3],
{2},1,
{1}1-5[4:3],
{2},8,
{1}1b/8b,
{1}1hx[2:3]/2hx[2:3],,
{1}3hx[2:3]/4hx[2:3],,
{4}4,4,4,,
{4}5,5,5,,
{1}4h[2:1]/6h[2:1],
{1}4/6,
{1}7hx[2:1]/8hx[2:1],
{1}7hx[2:1]/8hx[2:1],
{4}6,6,6,,
{4}5,5,5,,
{1}3hx[2:1]/4hx[2:1],
{1}3hx[2:1]/4hx[2:1],
{4}2,2,2,,
{4}1,1,1,,
{1}1x-6[4:3]/2x-5[4:3],
{2},7,
{1}7x-4[4:3]/8x-3[4:3],
{2},2,
{4}1,1,1,,
{4}8,8,8,,
{1}1h[2:1]/8h[2:1],
{1}2h[2:1]/7h[2:1],
{1}1x-4[4:3]/8x-5[4:3],,
{1}3hx[1:4]/6hx[1:4],,,,
{2},C1f,
E
ADVANCED
(180.0){1},
{1}4>8[4:5],,
{1}7<3[4:5],,
{1}2q5[4:5],,
{1}3h[2:1]/6h[2:1],
{4}4/5,4/5,3b/6b,,
{4}4,3,2,1,
{4}8,7,5/6,,
{4}3,3,3/4,,
{2}4h[4:1]/5h[4:1],3/6,
{4}5,6,7,8,
{4}1,2,3/4,,
{4}6,6,5/6,,
{2}4h[4:1]/5h[4:1],3x/6x,
{4}2,2,1,1,
{4}8,8,1/7,,
{4}6,6,5,5,
{4}4,4,3/5,,
{1}4xq5[1:1],,
{1}6x<3[1:1],
{2},4x/5x,
{2}6h[2:1],5,
{4}4,4,4/5,,
{2}3h[2:1],4,
{4}5,5,4/5,,
{2}7h[2:1],8,
{4}2,2,1/2,,
{1}1-4[4:3]/8-5[4:3],
{2},3x/6x,
{2}2h[2:1],3h[2:1],
{2}4,4/5,
{2}6h[2:1],7h[2:1],
{2}8,1/8,
{1}2h[2:1]/4h[2:1],
{1}5h[2:1]/7h[2:1],
{2}6h[2:1],5h[2:1],
{2}4h[2:1],3,
{1}2x-5[4:3],
{2},6,
{1}7-4[4:3],
{2},2,
{1}1-5[4:3],
{2},7,
{1}8-4[4:3],
{2},3x/6x,
{2}E4,E3,
{2}E2,E1,
{2}B1/B8,B2/B7,
{1}Ch[2:1],
{4}E7,B6,B5,,
{4}E3,B3,B4,,
{2}B1/B8,B2/B7,
{1}Ch[2:1],
{4}1/8,1/8,2/7,2/7,
{4}3/6,3/6,4h[4:1]/5h[4:1],,
{4}4/5,6,4/5,3,
{4}4/5,4/5,3/6,2/7,
{4}1b/8b,,2/4,3,
{4}4,5,4/5,,
{4}5h[4:1]/7h[4:1],,5/7,6,
{4}5,4,4/5,,
{4}3h[2:1],4,5,,
{4}6h[2:1],5,4,,
{4}2h[2:1],1,8,,
{2}1h[4:1]/8h[4:1],2/7,
{4}3h[4:1],4,2/5,,
{4}6h[4:1],5,4/7,,
{1}5h[2:1]/6h[2:1],
{1}3h[2:1]/4h[2:1],
{1}2>7[4:5],,
{1}1pp4[4:5]/8qq5[4:5],,
{4}3hx[2:1]/6hx[2:1],,,2b/7b,
{4}1,1,2,2,
{4}3,4,5/6,7,
{4}8,8,7,7,
{4}5/6,4,3x/5x,,
{4}2,2,1,1,
{4}2,1/2,3/8,,
{4}7,7,8,8,
{4}7/8,1/6,2b/5b,,
{4}1,2,3/4,3/4,
{8}5,5,5,,4/6,,,,
{4}8,7,5/6,5/6,
{8}4,4,4,,3x/5x,,,,
{4}4,3,1/2,1/2,
{8}8,8,8,,1/7,,,,
{4}5,6,7/8,7/8,
{8}1,1,1,,2x/8x,,,,
{8}7,7,7,,5/6,,5/6,,
{8}4,4,4,,3/5,,,,
{8}3,3,3,,1/2,,1/2,,
{8}8,8,8,,1/7,,,,
{4}6h[4:1],5,4,3,
{4}3h[4:1],4,2/5,,
{8}3,3,3,,5,5,5,,
{8}4,4,4,,6,6,6,,
{8}2hx[8:3]/7hx[8:3],,,,,,1x/8x,8x/1x>8[8:35],{1},,,,,
{2},C1f/B2/B7,
E
EXPERT
(180.0){1},
{4}4x/2hx[1:1],,,3<8[4:3],{1},
{4}5x/7hx[1:1],,,6>1[4:3],{1},
{4}8h[2:1],,7h[4:1],6h[4:1],
{4}5h[4:1],4h[4:1],3h[4:1],2,
{8}1/2,,3,2/4,,6,5/7,,
{8}4,4,5,,2b/7b,,,,
{16}3h[16:3],,,4,,,2/5,,6h[16:3],,,5,,,4/7,,
{16}3h[16:3],,,4,,,2/5,,2/5,,,,1,,,,
{4}5/6h[4:1],2,4/3h[4:1],7,
{4}6h[4:1],5h[4:1],4h[4:1],3,
{16}2h[16:3],,,1,,,3/8,,7h[16:3],,,8,,,1/6,,
{16}2h[16:3],,,1,,,3/8,,3/8,,,,7,,,,
{4}5/6h[4:1],2,4/3h[4:1],7,
{4}1x/8x,2x,3x,4x,
{8}5/6,,8,8,,6h[4:1],,5,
{8},4/7,,6,6,,4/5,,
{4}6/3h[2:1],6,4,1,
{4}2/7h[2:1],2,8,5,
{8}2x,,3/4,3/4,,5/7,5/7,,
{8}1/2,1/2,,7/8,7/8,,1/6,,
{8}4/5,,7,5/7,,2,2/4,,
{8}7,7,8,,1b/6b,,,,
{2}8^5[4:1],1^4[4:1],
{4}8,7,6h[4:1],5,
{2}4^1[4:1],5^8[4:1],
{4}1,2,3h[4:1],4,
{4}5,6,8,5/7,
{4}4,3,1,2/4,
{4}3^6[4:1],,,7,
{4}6^3[4:1],,,2/7,
{4}3h[4:7],5,4,4,
{4}6,5,4,4,
{4}2,1/2,7,7/8,
{8}6,,5/6,,4,4,5,,
{4}3h[4:1]/6h[4:1],,5/7,4,
{4}3h[4:1]/6h[4:1],,2/4,5,
{4}6,8,3,1,
{1}Ch[2:1],
{2}3-5[4:1],8-6[4:1],
{1}1s5[2:1],
{8}6,6,6h[4:1],,5,,8,,
{8}3,3,3h[4:1],,4,,1,,
{2}7-1[4:1],2-5[4:1],
{4}7-3[4:1],,1,1/8,
{4}2h[4:1],3h[4:1],4,4/5,
{4}7h[4:1],6h[4:1],5,4/5,
{4}4/3h[2:1],,E5,C1,
{4}E8,E7,E6,E5,
{4}4/3h[2:1],,E6,C1,
{4}E2,E3,E4,E5,
{4}6h[4:1],B6,3h[4:1],B3,
{4}5h[4:1],E5,4,4/5p4[8:5],
{4},,,3>6[8:5],
{4},,,4x/5x,
{8}3/4,3/4,,5/6,5/6,,4/5,,
{8}3,3,5,5,4,4,6,6,
{16}4,5,4,5,4,5,4,5,4,5,4,,3/6,,,,
{16}3x/5x,,,3x/5x,,,4x/6x,,,4x/6x,,,4x/5x,,,,
{8}2b/7b,,,,4/5,,3,3^6[8:3],
{4},7x,8x,1x,
{8}4/2h[8:3],,,3,,4/3^8[8:3],,5hx[8:5],
{4},,,6,
{8}1b/7b,,,,5/6,,7,7^4[8:3],
{4},3x,2x,1x,
{8}8h[4:1],,,1h[4:1]/7h[4:1],,,2h[4:1]/6h[4:1],,
{8},3h[4:1]/5h[4:1],,,3/5,,4/5,,
{4}4/6,8h[4:1],2h[4:1],4,
{4}E4,C1,E1/E7,,
{4}2/8,4h[4:1],6h[4:1],8,
{4}E8,C1,E3/E5,,
{1}5/4>5[1:1],
{4},,4x/5x,3x/4x<3[2:3],{1},,
{4}Ch[2:1],,,1/8,
{8}2b/7-4[8:1],,2,,3,3,4,,
{8}8/2-5[8:1],,7,,6,6,5,,
{8}4/6-1[8:1],,3,,2,2,1,,
{2}1-5[8:1]/8-4[8:1],2-4[8:1]/7-5[8:1],
{4}2x/7x,,5/2h[4:1],4h[4:1],
{4}5h[4:1],7h[4:1],5h[4:1],4h[4:1],
{2}3-8[8:1],5-1[8:1],
{4}2,3/5,4/6,1/8,
{8}2b,2,4,4,2,2,8,8,
{8}1,1,7,7,5,5,6,,
{2}7-4[8:1]/8-3[8:1],1-6[8:1]/2-5[8:1],
{4}4x/7x,5x/6x,3x/4x,2x/5x,
{8}7b,7,5,5,7,7,1,1,
{8}4,4,2,2,7,7,8,,
{2}5-2[8:1]/6-1[8:1],3-8[8:1]/4-7[8:1],
{4}1x/6x,2x,3x/8x,5b/6b,
{8}7,7,5,6,2,2,4,3,
{8}6,6,5,,1/8,,2/4,,
{8}3,3,4,2,6,6,5,7,
{2}1-5[8:1],4-1[8:1]/6-1[8:1],
{8}3,3,5,5,2h[4:1],,1,,
{4}7/8,5/6,3/4,1x/8x,
{8}5/6,5/6,4/7,4/7,3/8,3/8,1b/2b,,
{8}3/4,3/4,2/5,2/5,1/6,1/6,7b/8b,,
{8}1x/6x,,,4x/7x,,,7x/8x,6hx[8:37]/1bqq4[8:35],{1},,,,,
{2},C1f/B2/E3/B3/B6/B7/E7,
E
MASTER
(180)
{4}4xqq8[2:3]/8hx[4:3],,,,7,7,6,6,1hx[4:3]/5xpp1[2:3],,,,2,2,3,3,
4/8hx[2:1],,1h[4:1],2h[4:1],3h[4:1],4h[4:1],5h[4:1],6<3[2:1],1h[2:1],,,3>6[2:1],8h[2:1],,,2b/7b,
{16}34,,,5,4,,6,,57,,,4,5,,3,,24,,,5,4,,{8}6,57,8,18,,
{4}2b/7b,7h[4:1],5h[4:1],4h[4:1],2h[4:1],1h[4:1],3h[4:1],4,
{16}56,,,4,5,,3,,24,,,5,4,,6,,57,,,4,5,,{8}3,24,1,18,,
{4}2b/7b,2h[4:1],4h[4:1],5h[4:1],7h[4:1],B6/B7,C,B2/B3,
18,34,{8}6,5,4,3h[4:1],,1,1,,34,,25,,18,,56,,3,4,5,6h[4:1],,8,8,,56,,47,,
3/8^5[8:1],,4,4^1[8:1],,6,6^3[8:1],,2,2^7[8:1],,5,5,,2b/7b,,
4>5[1:1]/5,,,Ch[8:7],{4},,,,18,2b/7b,
3^6[8:1]/6,,{8}7,8,1,2h[4:1],,3,2h[8:1],1,2h[8:1],4,2h[8:1],8,
2,,{16}6,4,5,3,{8}2,1,8,7h[4:1],,6,7h[8:1],8,7h[8:1],5,7h[8:1],1,
7,,{12}6,6,6,57,,,3,3,3,{8}24,,18,2/7h[4:1],,6,5,4,
3^6[8:1],,8,7,,37,26,1qq4[8:3]/5<3[8:3],{4},,,2b/7b,5^2[8:1]/6,1,{8}7,8,16,,3/4^7[8:1],,8,,2,1,38,,
{2}5q1[8:1]/6^8[8:1],1^3[8:1]/8q4[8:1],4^7[8:1]/5^2[8:1],{8},18,27,,
{2}4h[4:1]/5h[4:1],{12}3,5,3,6,4,6,2,4,3,7,5,6,1,4,3,8,5,6,
{8}47,,34,25,,56,47,,8h[8:1],7h[8:1],6h[8:1],5h[8:1],4h[8:1],3h[8:1],2h[8:1],1,
2b/7b,8^6[8:1],1,2,,1^6[8:1],2,3,,2<5[4:1],3,4h[4:3],,,,,
,5h[8:1],{16}1,2,3,4,1,8,7,6,1,2,3,4,6,5,4,3,2,1,8,7,3,4,5,6,7,8,1,2,
{8}5^8[8:1],,2,3,4^1[8:1],,7,6,{4}5-1[8:1],5^2[8:1]*^8[8:1],5w1[8:1],5,
{16}3,4,3,,25,,6,5,6,,47,,3,4,3,,E7,B6,B5,E5,E1,B1,B2,E3,E8,B7,B6,E6,E2,B2,B3,E4,
{4}Cf,18,{8}8^5[8:1],8,1v4[8:1],1,,{16}8,7,6,,,,34,,,,6,5,4,,,,,,
8,7,6,5,1,8,7,6,5,,7h[4:1],,,,4,6,4,5,3,5,4h[8:1],,,3h[8:1]/5h[8:1],,,2b/6b,,
,,,,2,4,2,4,3,5,3,5,4,6,4,6,{4}5qq4[8:1],7qq5[8:1],1pp2[8:1],8,
8V63[4:1],3>7[4:1],7V14[4:1],4<8[4:1],8-3[4:1],3s7[4:1],,,
{8}4,45,,{16}6,6,{8}5,,45,45,{16}5,4,5,4,5,4,5,4,6,,3,3,4,,,,
1,1,2,2,3,3,4,4,5,5,6,6,7,7,8,8,1h[8:1],,,23,,,8h[8:1],,,67,,,1b/8b,,,,
{2}4x^1[8:1]/7x^4[8:1],{8}1,8,7,6pp3[8:5],,,E3,,E5,,E1,,
2h[4:1]/3h[4:1],,,E2/E3/E4,,E6/E7/E8,,E1/E5/Cf,,,,,56,,34,,
2^5[8:1]/5^8[8:1],,,,8,1,2,3qq6[8:5],,,E7,,E5,,E1,,
2b/7b-3[8:1],,1,2b-5[8:1],,7,6b-1[8:1],,2,3b-6[8:1],,8,7,,1b/5b,,
34,,25,3,4,3,25,3,4,3,25,{16}3,3,{8}4,3,25,,
56,,47,6,5,6,47,6,5,6,47,{16}6,6,{8}5,6,47,,
1^4[8:1]/6,,5,5^8[8:1],,3,3^6[8:1],,7,7^2[8:1],,4,4,,2b/7b,,
4/5<4[1:1],,,Ch[8:7],{4},,,,18,2b/7b,{16}46,,,35,,,46,,3,2,1,8,7,6,5,4,
{8}3x/7x,,46,,12,3,45,6,7-3[8:1]/8,,2,2h[4:1],,3h[4:1],,4,
45,,36,,78,6,45,3,1/2-6[8:1],,7,7h[4:1],,6h[4:1],,5,
{4}4b/7b,,7/8-4[8:1],2-6[8:1]/8,2/5-1[8:1],3-6[8:1]/5,3/8-4[8:1],2>1[2:1]/8,
2/5h[2:1],,,7<8[2:1],3h[2:1],,,2b/7b,
{16}4x,5,4,5,4,5,4,5,3,6,3,6,3,6,3,6,4,5,4,5,3,6,3,6,4,5,4,5,3,6,3,6,
4,5,4,5,4,5,4,5,3,6,3,6,3,6,3,,4x/5x,,,2x/4x,,,5x/7x,,{4}1x-4[8:1]/8x-5[8:1],1b/8b,
{16}4x,5,4,5,4,5,4,5,1,8,1,8,1,8,1,8,3,4,3,4,2,5,2,5,1,6,1,6,8,7,8,7,
{4}1>5[4:1],5<1[4:1],1>5[4:1],5,{16}7x,,,4x/5x,,,2x/4x,,{4}1x^4[8:1]/8x^5[8:1],1b/8b,
{16}3x,5,4,5,4,5,4,5,7x,5,4,5,4,5,4,5,2x,5,4,5,4,5,4,5,8x,5,4,5,4,5,4,5,
1x,5,4,5,4,5,4,5,6x,5,4,5,4,5,4,5,3x,5,4,5,4,5,4,5,7x,5,4,5,4,5,4,5,
2x,5,4,5,7x,5,4,5,3x,5,4,5,8x,5,4,5,2x,5,4,5,6x,5,4,5,1x,,,,2b/7b,,,,
{24}1x,2,3,7,6,5,2,3,4,8,7,6,1,2,3,7,6,5,2,3,4,8,7,6,
1,2,3,7,6,5,2,3,4,8,7,6,{32}1x,2x,3x,4x,5x,6x,7x,8x,{4}1b/5b,
{8}3x/8x,,78,1x/6x,,27,36,4b>5[4:19]/5b<4[4:19],{2},,,,,,,,,,,
{1}B2/B3/B6/B7/Cf/E3/E7,,,,,,,,,,
E
Re:MASTER
最終更新:2026年06月05日 23:28